  0
SECTION
  2
HEADER
  9
$ACADVER
  1
AC1015
  9
$ACADMAINTVER
 70
     6
  9
$DWGCODEPAGE
  3
DOS932
  9
$INSBASE
 10
0.0
 20
0.0
 30
0.0
  9
$EXTMIN
 10
0.0
 20
0.0
 30
0.0
  9
$EXTMAX
 10
2159.0
 20
1397.0
 30
0.0
  9
$LIMMIN
 10
0.0
 20
0.0
  9
$LIMMAX
 10
2159.0
 20
1397.0
  9
$ORTHOMODE
 70
     0
  9
$REGENMODE
 70
     1
  9
$FILLMODE
 70
     1
  9
$QTEXTMODE
 70
     0
  9
$MIRRTEXT
 70
     1
  9
$LTSCALE
 40
5.0
  9
$ATTMODE
 70
     1
  9
$TEXTSIZE
 40
17.5
  9
$TRACEWID
 40
1.0
  9
$TEXTSTYLE
  7
Standard
  9
$CLAYER
  8
0
  9
$CELTYPE
  6
ByLayer
  9
$CECOLOR
 62
   256
  9
$CELTSCALE
 40
1.0
  9
$DISPSILH
 70
     0
  9
$DIMSCALE
 40
1.0
  9
$DIMASZ
 40
16.51
  9
$DIMEXO
 40
5.0
  9
$DIMDLI
 40
3.75
  9
$DIMRND
 40
0.0
  9
$DIMDLE
 40
0.0
  9
$DIMEXE
 40
5.0
  9
$DIMTP
 40
0.0
  9
$DIMTM
 40
0.0
  9
$DIMTXT
 40
17.5
  9
$DIMCEN
 40
2.5
  9
$DIMTSZ
 40
0.0
  9
$DIMTOL
 70
     0
  9
$DIMLIM
 70
     0
  9
$DIMTIH
 70
     1
  9
$DIMTOH
 70
     1
  9
$DIMSE1
 70
     0
  9
$DIMSE2
 70
     0
  9
$DIMTAD
 70
     1
  9
$DIMZIN
 70
     0
  9
$DIMBLK
  1

  9
$DIMASO
 70
     1
  9
$DIMSHO
 70
     1
  9
$DIMPOST
  1

  9
$DIMAPOST
  1

  9
$DIMALT
 70
     0
  9
$DIMALTD
 70
     3
  9
$DIMALTF
 40
0.0393700787
  9
$DIMLFAC
 40
1.0
  9
$DIMTOFL
 70
     1
  9
$DIMTVP
 40
0.0
  9
$DIMTIX
 70
     0
  9
$DIMSOXD
 70
     0
  9
$DIMSAH
 70
     0
  9
$DIMBLK1
  1

  9
$DIMBLK2
  1

  9
$DIMSTYLE
  2
ISO-25
  9
$DIMCLRD
 70
     0
  9
$DIMCLRE
 70
     0
  9
$DIMCLRT
 70
     0
  9
$DIMTFAC
 40
1.0
  9
$DIMGAP
 40
7.62
  9
$DIMJUST
 70
     0
  9
$DIMSD1
 70
     0
  9
$DIMSD2
 70
     0
  9
$DIMTOLJ
 70
     0
  9
$DIMTZIN
 70
     0
  9
$DIMALTZ
 70
     0
  9
$DIMALTTZ
 70
     0
  9
$DIMUPT
 70
     0
  9
$DIMDEC
 70
     2
  9
$DIMTDEC
 70
     2
  9
$DIMALTU
 70
     2
  9
$DIMALTTD
 70
     3
  9
$DIMTXSTY
  7
Standard
  9
$DIMAUNIT
 70
     0
  9
$DIMADEC
 70
     2
  9
$DIMALTRND
 40
0.0
  9
$DIMAZIN
 70
     0
  9
$DIMDSEP
 70
    44
  9
$DIMATFIT
 70
     3
  9
$DIMFRAC
 70
     0
  9
$DIMLDRBLK
  1

  9
$DIMLUNIT
 70
     2
  9
$DIMLWD
 70
    -2
  9
$DIMLWE
 70
    -2
  9
$DIMTMOVE
 70
     0
  9
$LUNITS
 70
     2
  9
$LUPREC
 70
     2
  9
$SKETCHINC
 40
1.0
  9
$FILLETRAD
 40
10.0
  9
$AUNITS
 70
     0
  9
$AUPREC
 70
     2
  9
$MENU
  1
.
  9
$ELEVATION
 40
0.0
  9
$PELEVATION
 40
0.0
  9
$THICKNESS
 40
0.0
  9
$LIMCHECK
 70
     0
  9
$CHAMFERA
 40
0.0
  9
$CHAMFERB
 40
0.0
  9
$CHAMFERC
 40
0.0
  9
$CHAMFERD
 40
0.0
  9
$SKPOLY
 70
     0
  9
$TDCREATE
 40
2458523.428454734
  9
$TDUCREATE
 40
2458523.053454734
  9
$TDUPDATE
 40
2458523.428460475
  9
$TDUUPDATE
 40
2458523.053460475
  9
$TDINDWG
 40
0.0000000116
  9
$TDUSRTIMER
 40
0.0000000116
  9
$USRTIMER
 70
     1
  9
$ANGBASE
 50
0.0
  9
$ANGDIR
 70
     0
  9
$PDMODE
 70
     0
  9
$PDSIZE
 40
-1.0
  9
$PLINEWID
 40
0.0
  9
$SPLFRAME
 70
     0
  9
$SPLINETYPE
 70
     6
  9
$SPLINESEGS
 70
     8
  9
$HANDSEED
  5
5B3
  9
$SURFTAB1
 70
     6
  9
$SURFTAB2
 70
     6
  9
$SURFTYPE
 70
     6
  9
$SURFU
 70
     6
  9
$SURFV
 70
     6
  9
$UCSBASE
  2

  9
$UCSNAME
  2

  9
$UCSORG
 10
0.0
 20
0.0
 30
0.0
  9
$UCSXDIR
 10
1.0
 20
0.0
 30
0.0
  9
$UCSYDIR
 10
0.0
 20
1.0
 30
0.0
  9
$UCSORTHOREF
  2

  9
$UCSORTHOVIEW
 70
     0
  9
$UCSORGTOP
 10
0.0
 20
0.0
 30
0.0
  9
$UCSORGBOTTOM
 10
0.0
 20
0.0
 30
0.0
  9
$UCSORGLEFT
 10
0.0
 20
0.0
 30
0.0
  9
$UCSORGRIGHT
 10
0.0
 20
0.0
 30
0.0
  9
$UCSORGFRONT
 10
0.0
 20
0.0
 30
0.0
  9
$UCSORGBACK
 10
0.0
 20
0.0
 30
0.0
  9
$PUCSBASE
  2

  9
$PUCSNAME
  2

  9
$PUCSORG
 10
0.0
 20
0.0
 30
0.0
  9
$PUCSXDIR
 10
1.0
 20
0.0
 30
0.0
  9
$PUCSYDIR
 10
0.0
 20
1.0
 30
0.0
  9
$PUCSORTHOREF
  2

  9
$PUCSORTHOVIEW
 70
     0
  9
$PUCSORGTOP
 10
0.0
 20
0.0
 30
0.0
  9
$PUCSORGBOTTOM
 10
0.0
 20
0.0
 30
0.0
  9
$PUCSORGLEFT
 10
0.0
 20
0.0
 30
0.0
  9
$PUCSORGRIGHT
 10
0.0
 20
0.0
 30
0.0
  9
$PUCSORGFRONT
 10
0.0
 20
0.0
 30
0.0
  9
$PUCSORGBACK
 10
0.0
 20
0.0
 30
0.0
  9
$USERI1
 70
     0
  9
$USERI2
 70
     0
  9
$USERI3
 70
     0
  9
$USERI4
 70
     0
  9
$USERI5
 70
     0
  9
$USERR1
 40
0.0
  9
$USERR2
 40
0.0
  9
$USERR3
 40
0.0
  9
$USERR4
 40
0.0
  9
$USERR5
 40
0.0
  9
$WORLDVIEW
 70
     1
  9
$SHADEDGE
 70
     3
  9
$SHADEDIF
 70
    70
  9
$TILEMODE
 70
     1
  9
$MAXACTVP
 70
    64
  9
$PINSBASE
 10
0.0
 20
0.0
 30
0.0
  9
$PLIMCHECK
 70
     0
  9
$PEXTMIN
 10
1.0000000000E+20
 20
1.0000000000E+20
 30
1.0000000000E+20
  9
$PEXTMAX
 10
-1.0000000000E+20
 20
-1.0000000000E+20
 30
-1.0000000000E+20
  9
$PLIMMIN
 10
0.0
 20
0.0
  9
$PLIMMAX
 10
420.0
 20
297.0
  9
$UNITMODE
 70
     0
  9
$VISRETAIN
 70
     1
  9
$PLINEGEN
 70
     0
  9
$PSLTSCALE
 70
     1
  9
$TREEDEPTH
 70
  3020
  9
$CMLSTYLE
  2
Standard
  9
$CMLJUST
 70
     0
  9
$CMLSCALE
 40
20.0
  9
$PROXYGRAPHICS
 70
     1
  9
$MEASUREMENT
 70
     1
  9
$CELWEIGHT
370
    -1
  9
$ENDCAPS
280
     0
  9
$JOINSTYLE
280
     0
  9
$LWDISPLAY
290
     1
  9
$INSUNITS
 70
     4
  9
$HYPERLINKBASE
  1

  9
$STYLESHEET
  1

  9
$XEDIT
290
     1
  9
$CEPSNTYPE
380
     0
  9
$PSTYLEMODE
290
     1
  9
$FINGERPRINTGUID
  2
{E5FA351C-D7B3-41AC-BF31-DF8217377A84}
  9
$VERSIONGUID
  2
{FAEB1C32-E019-11D5-929B-00C0DF256EC4}
  9
$EXTNAMES
290
     1
  9
$PSVPSCALE
 40
0.0
  9
$OLESTARTUP
290
     0
  0
ENDSEC
  0
SECTION
  2
CLASSES
  0
CLASS
  1
ACDBDICTIONARYWDFLT
  2
AcDbDictionaryWithDefault
  3
ObjectDBX Classes
 90
        0
280
     0
281
     0
  0
CLASS
  1
VISUALSTYLE
  2
AcDbVisualStyle
  3
ObjectDBX Classes
 90
     4095
280
     0
281
     0
  0
CLASS
  1
MATERIAL
  2
AcDbMaterial
  3
ObjectDBX Classes
 90
     1153
280
     0
281
     0
  0
CLASS
  1
SCALE
  2
AcDbScale
  3
ObjectDBX Classes
 90
     1153
280
     0
281
     0
  0
CLASS
  1
TABLESTYLE
  2
AcDbTableStyle
  3
ObjectDBX Classes
 90
     4095
280
     0
281
     0
  0
CLASS
  1
MLEADERSTYLE
  2
AcDbMLeaderStyle
  3
ACDB_MLEADERSTYLE_CLASS
 90
     4095
280
     0
281
     0
  0
CLASS
  1
SUN
  2
AcDbSun
  3
SCENEOE
 90
     1153
280
     0
281
     0
  0
CLASS
  1
ACDBPLACEHOLDER
  2
AcDbPlaceHolder
  3
ObjectDBX Classes
 90
        0
280
     0
281
     0
  0
CLASS
  1
LAYOUT
  2
AcDbLayout
  3
ObjectDBX Classes
 90
        0
280
     0
281
     0
  0
ENDSEC
  0
SECTION
  2
TABLES
  0
TABLE
  2
VPORT
  5
8
330
0
100
AcDbSymbolTable
 70
     1
  0
VPORT
  5
29
330
8
100
AcDbSymbolTableRecord
100
AcDbViewportTableRecord
  2
*Active
 70
     0
 10
0.0
 20
0.0
 11
1.0
 21
1.0
 12
1079.5
 22
698.5
 13
0.0
 23
0.0
 14
10.0
 24
10.0
 15
10.0
 25
10.0
 16
0.0
 26
0.0
 36
1.0
 17
0.0
 27
0.0
 37
0.0
 40
1397.0
 41
1.5454545455
 42
50.0
 43
0.0
 44
0.0
 50
0.0
 51
0.0
 71
     0
 72
  2000
 73
     1
 74
     3
 75
     0
 76
     0
 77
     0
 78
     0
281
     0
 65
     1
110
0.0
120
0.0
130
0.0
111
1.0
121
0.0
131
0.0
112
0.0
122
1.0
132
0.0
 79
     0
146
0.0
  0
ENDTAB
  0
TABLE
  2
LTYPE
  5
5
330
0
100
AcDbSymbolTable
 70
     6
  0
LTYPE
  5
14
330
5
100
AcDbSymbolTableRecord
100
AcDbLinetypeTableRecord
  2
ByBlock
 70
     0
  3

 72
    65
 73
     0
 40
0.0
  0
LTYPE
  5
15
330
5
100
AcDbSymbolTableRecord
100
AcDbLinetypeTableRecord
  2
ByLayer
 70
     0
  3

 72
    65
 73
     0
 40
0.0
  0
LTYPE
  5
16
330
5
100
AcDbSymbolTableRecord
100
AcDbLinetypeTableRecord
  2
Continuous
 70
     0
  3
Solid line
 72
    65
 73
     0
 40
0.0
  0
LTYPE
  5
6E
330
5
100
AcDbSymbolTableRecord
100
AcDbLinetypeTableRecord
  2
HIDDEN
 70
     0
  3
Hidden __ __ __ __ __ __ __ __ __ __ __ __ __ __
 72
    65
 73
     2
 40
1.905
 49
1.27
 74
     0
 49
-0.635
 74
     0
  0
LTYPE
  5
6F
330
5
100
AcDbSymbolTableRecord
100
AcDbLinetypeTableRecord
  2
PHANTOM
 70
     0
  3
Phantom ______  __  __  ______  __  __  ______
 72
    65
 73
     6
 40
12.7
 49
6.35
 74
     0
 49
-1.27
 74
     0
 49
1.27
 74
     0
 49
-1.27
 74
     0
 49
1.27
 74
     0
 49
-1.27
 74
     0
  0
LTYPE
  5
70
330
5
100
AcDbSymbolTableRecord
100
AcDbLinetypeTableRecord
  2
CENTER
 70
     0
  3
Center ____ _ ____ _ ____ _ ____ _ ____ _ ____
 72
    65
 73
     4
 40
10.16
 49
6.35
 74
     0
 49
-1.27
 74
     0
 49
1.27
 74
     0
 49
-1.27
 74
     0
  0
LTYPE
  5
71
330
5
100
AcDbSymbolTableRecord
100
AcDbLinetypeTableRecord
  2
CENTERX2
 70
     0
  3
Center (2x) ________  __  ________  __  _____
 72
    65
 73
     4
 40
20.32
 49
12.7
 74
     0
 49
-2.54
 74
     0
 49
2.54
 74
     0
 49
-2.54
 74
     0
  0
LTYPE
  5
72
330
5
100
AcDbSymbolTableRecord
100
AcDbLinetypeTableRecord
  2
DOT2
 70
     0
  3
Dot (.5x) ........................................
 72
    65
 73
     2
 40
0.635
 49
0.0
 74
     0
 49
-0.635
 74
     0
  0
ENDTAB
  0
TABLE
  2
LAYER
  5
2
330
0
100
AcDbSymbolTable
 70
    42
  0
LAYER
  5
10
330
2
100
AcDbSymbolTableRecord
100
AcDbLayerTableRecord
  2
0
 70
     0
 62
     7
  6
Continuous
370
    -3
390
F
  0
LAYER
  5
73
330
2
100
AcDbSymbolTableRecord
100
AcDbLayerTableRecord
  2
FORMAT
 70
     0
 62
     7
  6
Continuous
370
    -3
390
F
  0
LAYER
  5
74
330
2
100
AcDbSymbolTableRecord
100
AcDbLayerTableRecord
  2
SLD-0
 70
     0
 62
   179
  6
Continuous
370
    -3
390
F
  0
LAYER
  5
75
330
2
100
AcDbSymbolTableRecord
100
AcDbLayerTableRecord
  2
AM_0
 70
     0
 62
     7
  6
Continuous
370
    25
390
F
  0
LAYER
  5
76
330
2
100
AcDbSymbolTableRecord
100
AcDbLayerTableRecord
  2
AM_7
 70
     0
 62
     4
  6
CENTERX2
370
    25
390
F
  0
LAYER
  5
77
330
2
100
AcDbSymbolTableRecord
100
AcDbLayerTableRecord
  2
AM_5
 70
     0
 62
     7
  6
Continuous
370
    25
390
F
  0
LAYER
  5
78
330
2
100
AcDbSymbolTableRecord
100
AcDbLayerTableRecord
  2
AM_3
 70
     0
 62
     6
  6
HIDDEN
370
    25
390
F
  0
LAYER
  5
79
330
2
100
AcDbSymbolTableRecord
100
AcDbLayerTableRecord
  2
AM_BOR
 70
     0
 62
   179
  6
Continuous
370
    50
390
F
  0
LAYER
  5
7A
330
2
100
AcDbSymbolTableRecord
100
AcDbLayerTableRecord
  2
CSLAYER1
 70
     0
 62
   179
  6
Continuous
370
    -3
390
F
  0
LAYER
  5
7B
330
2
100
AcDbSymbolTableRecord
100
AcDbLayerTableRecord
  2
CSLAYER241
 70
     0
 62
   179
  6
Continuous
370
    -3
390
F
  0
LAYER
  5
7C
330
2
100
AcDbSymbolTableRecord
100
AcDbLayerTableRecord
  2
AM_1
 70
     0
 62
    14
  6
Continuous
370
    -3
390
F
  0
LAYER
  5
7D
330
2
100
AcDbSymbolTableRecord
100
AcDbLayerTableRecord
  2
SLD-DEFPOINTS
 70
     0
 62
   179
  6
Continuous
370
    -3
390
F
  0
LAYER
  5
7E
330
2
100
AcDbSymbolTableRecord
100
AcDbLayerTableRecord
  2
001
 70
     0
 62
   179
  6
Continuous
370
    -3
390
F
  0
LAYER
  5
7F
330
2
100
AcDbSymbolTableRecord
100
AcDbLayerTableRecord
  2
部品
 70
     0
 62
     5
  6
Continuous
370
    -3
390
F
  0
LAYER
  5
80
330
2
100
AcDbSymbolTableRecord
100
AcDbLayerTableRecord
  2
寸法線
 70
     0
 62
    84
  6
Continuous
370
    -3
390
F
  0
LAYER
  5
81
330
2
100
AcDbSymbolTableRecord
100
AcDbLayerTableRecord
  2
可見_(ISO)
 70
     0
 62
   179
  6
Continuous
370
    35
390
F
  0
LAYER
  5
82
330
2
100
AcDbSymbolTableRecord
100
AcDbLayerTableRecord
  2
窄部可見_(ISO)
 70
     0
 62
     3
  6
Continuous
370
    25
390
F
  0
LAYER
  5
83
330
2
100
AcDbSymbolTableRecord
100
AcDbLayerTableRecord
  2
AM_6
 70
     0
 62
     2
  6
Continuous
370
    25
390
F
  0
LAYER
  5
84
330
2
100
AcDbSymbolTableRecord
100
AcDbLayerTableRecord
  2
AM_4
 70
     0
 62
     3
  6
Continuous
370
    25
390
F
  0
LAYER
  5
85
330
2
100
AcDbSymbolTableRecord
100
AcDbLayerTableRecord
  2
AM_8
 70
     0
 62
     1
  6
Continuous
370
    -3
390
F
  0
LAYER
  5
86
330
2
100
AcDbSymbolTableRecord
100
AcDbLayerTableRecord
  2
AM_9
 70
     0
 62
     9
  6
Continuous
370
    -3
390
F
  0
LAYER
  5
87
330
2
100
AcDbSymbolTableRecord
100
AcDbLayerTableRecord
  2
AM_12
 70
     0
 62
   179
  6
Continuous
370
    50
390
F
  0
LAYER
  5
88
330
2
100
AcDbSymbolTableRecord
100
AcDbLayerTableRecord
  2
AM_PAREF
 70
     0
 62
     4
  6
Continuous
370
    25
390
F
  0
LAYER
  5
89
330
2
100
AcDbSymbolTableRecord
100
AcDbLayerTableRecord
  2
DIM
 70
     0
 62
     2
  6
Continuous
370
    -3
390
F
  0
LAYER
  5
8A
330
2
100
AcDbSymbolTableRecord
100
AcDbLayerTableRecord
  2
CEN
 70
     0
 62
     2
  6
CENTER
370
    -3
390
F
  0
LAYER
  5
8B
330
2
100
AcDbSymbolTableRecord
100
AcDbLayerTableRecord
  2
DAS
 70
     0
 62
     6
  6
HIDDEN
370
    -3
390
F
  0
LAYER
  5
8C
330
2
100
AcDbSymbolTableRecord
100
AcDbLayerTableRecord
  2
HAT
 70
     0
 62
     4
  6
Continuous
370
    -3
390
F
  0
LAYER
  5
8D
330
2
100
AcDbSymbolTableRecord
100
AcDbLayerTableRecord
  2
AM_0N
 70
     0
 62
   179
  6
Continuous
370
    50
390
F
  0
LAYER
  5
8E
330
2
100
AcDbSymbolTableRecord
100
AcDbLayerTableRecord
  2
AM_11
 70
     0
 62
     3
  6
PHANTOM
370
    25
390
F
  0
LAYER
  5
8F
330
2
100
AcDbSymbolTableRecord
100
AcDbLayerTableRecord
  2
AM_2
 70
     0
 62
     5
  6
Continuous
370
    25
390
F
  0
LAYER
  5
90
330
2
100
AcDbSymbolTableRecord
100
AcDbLayerTableRecord
  2
TEXT
 70
     0
 62
     2
  6
Continuous
370
    -3
390
F
  0
LAYER
  5
91
330
2
100
AcDbSymbolTableRecord
100
AcDbLayerTableRecord
  2
DIMENSION
 70
     0
 62
     2
  6
Continuous
370
    25
390
F
  0
LAYER
  5
92
330
2
100
AcDbSymbolTableRecord
100
AcDbLayerTableRecord
  2
MAIN_SHAPE
 70
     0
 62
   255
  6
Continuous
370
    25
390
F
  0
LAYER
  5
93
330
2
100
AcDbSymbolTableRecord
100
AcDbLayerTableRecord
  2
INVINSIBLE_LINE
 70
     0
 62
    41
  6
DOT2
370
    25
390
F
  0
LAYER
  5
94
330
2
100
AcDbSymbolTableRecord
100
AcDbLayerTableRecord
  2
KEPALA_GAMBAR
 70
     0
 62
     2
  6
Continuous
370
    25
390
F
  0
LAYER
  5
95
330
2
100
AcDbSymbolTableRecord
100
AcDbLayerTableRecord
  2
ARSIR_DALAM
 70
     0
 62
    21
  6
Continuous
370
    25
390
F
  0
LAYER
  5
96
330
2
100
AcDbSymbolTableRecord
100
AcDbLayerTableRecord
  2
ARSIR_LUAR
 70
     0
 62
    30
  6
Continuous
370
    25
390
F
  0
LAYER
  5
97
330
2
100
AcDbSymbolTableRecord
100
AcDbLayerTableRecord
  2
GARIS_TEPI
 70
     0
 62
     2
  6
Continuous
370
    50
390
F
  0
LAYER
  5
98
330
2
100
AcDbSymbolTableRecord
100
AcDbLayerTableRecord
  2
FINISHING
 70
     0
 62
   102
  6
Continuous
370
    25
390
F
  0
LAYER
  5
99
330
2
100
AcDbSymbolTableRecord
100
AcDbLayerTableRecord
  2
PROSES
 70
     0
 62
   120
  6
Continuous
370
    25
390
F
  0
LAYER
  5
9A
330
2
100
AcDbSymbolTableRecord
100
AcDbLayerTableRecord
  2
1
 70
     0
 62
   179
  6
Continuous
370
    -3
390
F
  0
LAYER
  5
9B
330
2
100
AcDbSymbolTableRecord
100
AcDbLayerTableRecord
  2
GARIS_POTONG
 70
     0
 62
     2
  6
Continuous
370
    25
390
F
  0
ENDTAB
  0
TABLE
  2
STYLE
  5
3
330
0
100
AcDbSymbolTable
 70
     4
  0
STYLE
  5
11
330
3
100
AcDbSymbolTableRecord
100
AcDbTextStyleTableRecord
  2
Standard
 70
     0
 40
0.0
 41
1.0
 50
0.0
 71
     0
 42
17.5
  3
txt
  4
bigfont
  0
STYLE
  5
346
330
3
100
AcDbSymbolTableRecord
100
AcDbTextStyleTableRecord
  2
SLDTEXTSTYLE0
 70
     0
 40
0.0
 41
0.7
 50
0.0
 71
     0
 42
17.5
  3
TXT
  4
bigfont
  0
STYLE
  5
399
330
3
100
AcDbSymbolTableRecord
100
AcDbTextStyleTableRecord
  2
SLDTEXTSTYLE1
 70
     0
 40
0.0
 41
0.75
 50
0.0
 71
     0
 42
17.5
  3
TXT
  4
bigfont
  0
STYLE
  5
3B1
330
3
100
AcDbSymbolTableRecord
100
AcDbTextStyleTableRecord
  2
SLDTEXTSTYLE2
 70
     0
 40
0.0
 41
0.7225806049
 50
0.0
 71
     0
 42
17.5
  3
TXT
  4
bigfont
  0
ENDTAB
  0
TABLE
  2
VIEW
  5
6
330
0
100
AcDbSymbolTable
 70
     0
  0
ENDTAB
  0
TABLE
  2
UCS
  5
7
330
0
100
AcDbSymbolTable
 70
     0
  0
ENDTAB
  0
TABLE
  2
APPID
  5
9
330
0
100
AcDbSymbolTable
 70
     1
  0
APPID
  5
12
330
9
100
AcDbSymbolTableRecord
100
AcDbRegAppTableRecord
  2
ACAD
 70
     0
  0
ENDTAB
  0
TABLE
  2
DIMSTYLE
  5
A
330
0
100
AcDbSymbolTable
 70
     3
100
AcDbDimStyleTable
  0
DIMSTYLE
105
27
330
A
100
AcDbSymbolTableRecord
100
AcDbDimStyleTableRecord
  2
ISO-25
 70
     0
 41
2.5
 42
0.625
 43
3.75
 44
1.25
 73
     0
 74
     0
 77
     1
 78
     8
140
2.5
141
2.5
143
0.0393700787
147
0.625
171
     3
172
     1
178
     0
271
     2
272
     2
274
     3
278
    44
283
     0
284
     8
340
11
  0
DIMSTYLE
105
3FE
102
{ACAD_REACTORS
330
3FD
330
40C
330
416
330
420
330
4C2
330
502
330
55D
330
59F
330
5A9
102
}
330
A
100
AcDbSymbolTableRecord
100
AcDbDimStyleTableRecord
  2
SLDDIMSTYLE0
 70
     0
 41
16.51
 44
0.0
 45
0.000000001
 73
     0
 74
     0
 77
     1
 78
    12
 79
     3
140
17.5
147
4.375
173
     1
178
     0
271
     2
272
     2
276
     2
284
    12
340
399
341
3FF
343
3FF
344
3FF
  0
DIMSTYLE
105
465
102
{ACAD_REACTORS
330
464
330
470
330
47A
330
485
330
48F
330
50C
102
}
330
A
100
AcDbSymbolTableRecord
100
AcDbDimStyleTableRecord
  2
SLDDIMSTYLE1
 70
     0
 41
16.51
 44
0.0
 45
0.000000001
 73
     0
 74
     0
 77
     1
 78
    12
 79
     3
140
17.5
147
4.375
173
     1
178
     0
271
     1
272
     1
276
     2
284
    12
340
399
341
3FF
343
3FF
344
3FF
  0
ENDTAB
  0
TABLE
  2
BLOCK_RECORD
  5
1
330
0
100
AcDbSymbolTable
 70
    30
  0
BLOCK_RECORD
  5
1F
330
1
100
AcDbSymbolTableRecord
100
AcDbBlockTableRecord
  2
*Model_Space
340
22
  0
BLOCK_RECORD
  5
1B
330
1
100
AcDbSymbolTableRecord
100
AcDbBlockTableRecord
  2
*Paper_Space
340
1E
  0
BLOCK_RECORD
  5
23
330
1
100
AcDbSymbolTableRecord
100
AcDbBlockTableRecord
  2
*Paper_Space0
340
26
  0
BLOCK_RECORD
  5
9C
330
1
100
AcDbSymbolTableRecord
100
AcDbBlockTableRecord
  2
面材表記1
340
0
102
{BLKREFS
331
38D
102
}
  0
BLOCK_RECORD
  5
A2
330
1
100
AcDbSymbolTableRecord
100
AcDbBlockTableRecord
  2
BLKF0004_1
340
0
102
{BLKREFS
331
383
102
}
  0
BLOCK_RECORD
  5
316
330
1
100
AcDbSymbolTableRecord
100
AcDbBlockTableRecord
  2
ﾌﾞﾛｯｸ10
340
0
102
{BLKREFS
331
38E
102
}
  0
BLOCK_RECORD
  5
343
330
1
100
AcDbSymbolTableRecord
100
AcDbBlockTableRecord
  2
SW_NOTE_0
340
0
102
{BLKREFS
331
349
102
}
  0
BLOCK_RECORD
  5
34A
330
1
100
AcDbSymbolTableRecord
100
AcDbBlockTableRecord
  2
SW_NOTE_1
340
0
102
{BLKREFS
331
34F
102
}
  0
BLOCK_RECORD
  5
350
330
1
100
AcDbSymbolTableRecord
100
AcDbBlockTableRecord
  2
SW_NOTE_2
340
0
102
{BLKREFS
331
355
102
}
  0
BLOCK_RECORD
  5
356
330
1
100
AcDbSymbolTableRecord
100
AcDbBlockTableRecord
  2
SW_NOTE_3
340
0
102
{BLKREFS
331
35B
102
}
  0
BLOCK_RECORD
  5
35C
330
1
100
AcDbSymbolTableRecord
100
AcDbBlockTableRecord
  2
SW_NOTE_4
340
0
102
{BLKREFS
331
361
102
}
  0
BLOCK_RECORD
  5
362
330
1
100
AcDbSymbolTableRecord
100
AcDbBlockTableRecord
  2
SW_NOTE_5
340
0
102
{BLKREFS
331
367
102
}
  0
BLOCK_RECORD
  5
368
330
1
100
AcDbSymbolTableRecord
100
AcDbBlockTableRecord
  2
SW_NOTE_6
340
0
102
{BLKREFS
331
36D
102
}
  0
BLOCK_RECORD
  5
36E
330
1
100
AcDbSymbolTableRecord
100
AcDbBlockTableRecord
  2
SW_NOTE_7
340
0
102
{BLKREFS
331
373
102
}
  0
BLOCK_RECORD
  5
374
330
1
100
AcDbSymbolTableRecord
100
AcDbBlockTableRecord
  2
SW_NOTE_8
340
0
102
{BLKREFS
331
379
102
}
  0
BLOCK_RECORD
  5
39C
330
1
100
AcDbSymbolTableRecord
100
AcDbBlockTableRecord
  2
SW_NOTE_9
340
0
102
{BLKREFS
331
3A5
102
}
  0
BLOCK_RECORD
  5
3FF
330
1
100
AcDbSymbolTableRecord
100
AcDbBlockTableRecord
  2
_OBLIQUE
340
0
102
{BLKREFS
331
406
331
407
331
410
331
411
331
41A
331
41B
331
424
331
425
331
469
331
46A
331
474
331
475
331
47E
331
47F
331
489
331
48A
331
493
331
494
331
4C6
331
4C7
331
506
331
507
331
510
331
511
331
561
331
562
331
5A3
331
5A4
331
5AD
331
5AE
102
}
  0
BLOCK_RECORD
  5
403
330
1
100
AcDbSymbolTableRecord
100
AcDbBlockTableRecord
  2
_D
340
0
  0
BLOCK_RECORD
  5
40D
330
1
100
AcDbSymbolTableRecord
100
AcDbBlockTableRecord
  2
_D_1
340
0
  0
BLOCK_RECORD
  5
417
330
1
100
AcDbSymbolTableRecord
100
AcDbBlockTableRecord
  2
_D_2
340
0
  0
BLOCK_RECORD
  5
421
330
1
100
AcDbSymbolTableRecord
100
AcDbBlockTableRecord
  2
_D_3
340
0
  0
BLOCK_RECORD
  5
466
330
1
100
AcDbSymbolTableRecord
100
AcDbBlockTableRecord
  2
_D_4
340
0
  0
BLOCK_RECORD
  5
471
330
1
100
AcDbSymbolTableRecord
100
AcDbBlockTableRecord
  2
_D_5
340
0
  0
BLOCK_RECORD
  5
47B
330
1
100
AcDbSymbolTableRecord
100
AcDbBlockTableRecord
  2
_D_6
340
0
  0
BLOCK_RECORD
  5
486
330
1
100
AcDbSymbolTableRecord
100
AcDbBlockTableRecord
  2
_D_7
340
0
  0
BLOCK_RECORD
  5
490
330
1
100
AcDbSymbolTableRecord
100
AcDbBlockTableRecord
  2
_D_8
340
0
  0
BLOCK_RECORD
  5
4C3
330
1
100
AcDbSymbolTableRecord
100
AcDbBlockTableRecord
  2
_D_9
340
0
  0
BLOCK_RECORD
  5
503
330
1
100
AcDbSymbolTableRecord
100
AcDbBlockTableRecord
  2
_D_10
340
0
  0
BLOCK_RECORD
  5
50D
330
1
100
AcDbSymbolTableRecord
100
AcDbBlockTableRecord
  2
_D_11
340
0
  0
BLOCK_RECORD
  5
55E
330
1
100
AcDbSymbolTableRecord
100
AcDbBlockTableRecord
  2
_D_12
340
0
  0
BLOCK_RECORD
  5
5A0
330
1
100
AcDbSymbolTableRecord
100
AcDbBlockTableRecord
  2
_D_13
340
0
  0
BLOCK_RECORD
  5
5AA
330
1
100
AcDbSymbolTableRecord
100
AcDbBlockTableRecord
  2
_D_14
340
0
  0
ENDTAB
  0
ENDSEC
  0
SECTION
  2
BLOCKS
  0
BLOCK
  5
20
330
1F
100
AcDbEntity
  8
0
100
AcDbBlockBegin
  2
*Model_Space
 70
     0
 10
0.0
 20
0.0
 30
0.0
  3
*Model_Space
  1

  0
ENDBLK
  5
21
330
1F
100
AcDbEntity
  8
0
100
AcDbBlockEnd
  0
BLOCK
  5
1C
330
1B
100
AcDbEntity
 67
     1
  8
0
100
AcDbBlockBegin
  2
*Paper_Space
 70
     0
 10
0.0
 20
0.0
 30
0.0
  3
*Paper_Space
  1

  0
ENDBLK
  5
1D
330
1B
100
AcDbEntity
 67
     1
  8
0
100
AcDbBlockEnd
  0
BLOCK
  5
24
330
23
100
AcDbEntity
  8
0
100
AcDbBlockBegin
  2
*Paper_Space0
 70
     0
 10
0.0
 20
0.0
 30
0.0
  3
*Paper_Space0
  1

  0
ENDBLK
  5
25
330
23
100
AcDbEntity
  8
0
100
AcDbBlockEnd
  0
BLOCK
  5
9D
330
9C
100
AcDbEntity
  8
0
100
AcDbBlockBegin
  2
面材表記1
 70
     0
 10
0.0
 20
0.0
 30
0.0
  3
面材表記1
  1

  0
LINE
  5
9F
330
9C
100
AcDbEntity
  8
AM_0
100
AcDbLine
 10
1605.9067304105
 20
198.9510073147
 30
0.0
 11
1623.4067304105
 21
198.9510073147
 31
0.0
  0
LINE
  5
A0
330
9C
100
AcDbEntity
  8
AM_0
100
AcDbLine
 10
1623.4067304105
 20
198.9510073147
 30
0.0
 11
1614.6567304105
 21
214.1064518809
 31
0.0
  0
LINE
  5
A1
330
9C
100
AcDbEntity
  8
AM_0
100
AcDbLine
 10
1614.6567304105
 20
214.1064518809
 30
0.0
 11
1605.9067304105
 21
198.9510073147
 31
0.0
  0
ENDBLK
  5
9E
330
9C
100
AcDbEntity
  8
0
100
AcDbBlockEnd
  0
BLOCK
  5
A3
330
A2
100
AcDbEntity
  8
0
100
AcDbBlockBegin
  2
BLKF0004_1
 70
     0
 10
0.0
 20
0.0
 30
0.0
  3
BLKF0004_1
  1

  0
ARC
  5
A5
330
A2
100
AcDbEntity
  8
AM_BOR
  6
Continuous
 62
   179
100
AcDbCircle
 10
410.661735
 20
21.072905
 30
0.0
 40
0.9885337500000236
100
AcDbArc
 50
281.578883
 51
335.897765
  0
ARC
  5
A6
330
A2
100
AcDbEntity
  8
AM_BOR
  6
Continuous
 62
   179
100
AcDbCircle
 10
411.4723725
 20
21.01167375
 30
0.0
 40
1.46237245160399
100
AcDbArc
 50
270.0
 51
335.8977443226
  0
ARC
  5
A7
330
A2
100
AcDbEntity
  8
AM_BOR
  6
Continuous
 62
   179
100
AcDbCircle
 10
418.81232125
 20
21.2956425
 30
0.0
 40
0.4509037674684014
100
AcDbArc
 50
270.0
 51
340.9063925397
  0
ARC
  5
A8
330
A2
100
AcDbEntity
  8
AM_BOR
  6
Continuous
 62
   179
100
AcDbCircle
 10
419.1337575
 20
21.50350875
 30
0.0
 40
1.275645000000004
100
AcDbArc
 50
270.0
 51
340.906508
  0
ARC
  5
A9
330
A2
100
AcDbEntity
  8
AM_BOR
  6
Continuous
 62
   179
100
AcDbCircle
 10
428.09904375
 20
20.3312975
 30
0.0
 40
0.8972312499999604
100
AcDbArc
 50
322.928819
 51
0.0
  0
ARC
  5
AA
330
A2
100
AcDbEntity
  8
AM_BOR
  6
Continuous
 62
   179
100
AcDbCircle
 10
428.6878375
 20
20.35123875
 30
0.0
 40
0.8230137917596494
100
AcDbArc
 50
288.0557129478
 51
0.0
  0
ARC
  5
AB
330
A2
100
AcDbEntity
  8
AM_BOR
  6
Continuous
 62
   179
100
AcDbCircle
 10
432.3055825
 20
21.2847775
 30
0.0
 40
0.7620674999999855
100
AcDbArc
 50
295.681459
 51
0.0
  0
ARC
  5
AC
330
A2
100
AcDbEntity
  8
AM_BOR
  6
Continuous
 62
   179
100
AcDbCircle
 10
433.97015875
 20
21.7963775
 30
0.0
 40
0.4090087499999981
100
AcDbArc
 50
180.0
 51
255.765612
  0
ARC
  5
AD
330
A2
100
AcDbEntity
  8
AM_BOR
  6
Continuous
 62
   179
100
AcDbCircle
 10
432.68176125
 20
20.624825
 30
0.0
 40
0.4609417124848545
100
AcDbArc
 50
264.282129
 51
326.8428808535
  0
ARC
  5
AE
330
A2
100
AcDbEntity
  8
AM_BOR
  6
Continuous
 62
   179
100
AcDbCircle
 10
432.6595975
 20
20.92950375
 30
0.0
 40
1.703490000000006
100
AcDbArc
 50
318.289226
 51
0.0
  0
ARC
  5
AF
330
A2
100
AcDbEntity
  8
AM_BOR
  6
Continuous
 62
   179
100
AcDbCircle
 10
433.29170375
 20
20.9482325
 30
0.0
 40
1.538200127755346
100
AcDbArc
 50
294.5691978693
 51
347.753313
  0
ARC
  5
B0
330
A2
100
AcDbEntity
  8
AM_BOR
  6
Continuous
 62
   179
100
AcDbCircle
 10
436.85328375
 20
20.9482325
 30
0.0
 40
1.538200264471223
100
AcDbArc
 50
192.2466912259
 51
245.430814
  0
ARC
  5
B1
330
A2
100
AcDbEntity
  8
AM_BOR
  6
Continuous
 62
   179
100
AcDbCircle
 10
437.48539
 20
20.92950375
 30
0.0
 40
1.703490007875416
100
AcDbArc
 50
180.0
 51
221.7107777904
  0
ARC
  5
B2
330
A2
100
AcDbEntity
  8
AM_BOR
  6
Continuous
 62
   179
100
AcDbCircle
 10
433.19437125
 20
22.32667625
 30
0.0
 40
0.9219662500000254
100
AcDbArc
 50
318.189927
 51
0.0
  0
ARC
  5
B3
330
A2
100
AcDbEntity
  8
AM_BOR
  6
Continuous
 62
   179
100
AcDbCircle
 10
434.02155
 20
22.10474
 30
0.0
 40
0.5882875000000004
100
AcDbArc
 50
278.751679
 51
357.442479
  0
ARC
  5
B4
330
A2
100
AcDbEntity
  8
AM_BOR
  6
Continuous
 62
   179
100
AcDbCircle
 10
440.1413775
 20
21.28296875
 30
0.0
 40
1.768602761554695
100
AcDbArc
 50
182.2068796873
 51
258.592973
  0
ARC
  5
B5
330
A2
100
AcDbEntity
  8
AM_BOR
  6
Continuous
 62
   179
100
AcDbCircle
 10
440.69108625
 20
21.301965
 30
0.0
 40
1.701436565854692
100
AcDbArc
 50
180.0
 51
238.0843594297
  0
ARC
  5
B6
330
A2
100
AcDbEntity
  8
AM_BOR
  6
Continuous
 62
   179
100
AcDbCircle
 10
439.17942
 20
25.52357375
 30
0.0
 40
3.804886240657471
100
AcDbArc
 50
284.0018578489
 51
309.128245
  0
ARC
  5
B7
330
A2
100
AcDbEntity
  8
AM_BOR
  6
Continuous
 62
   179
100
AcDbCircle
 10
444.4134425
 20
25.52357375
 30
0.0
 40
3.804886240657491
100
AcDbArc
 50
230.8717554948
 51
255.998143
  0
ARC
  5
B8
330
A2
100
AcDbEntity
  8
AM_BOR
  6
Continuous
 62
   179
100
AcDbCircle
 10
445.44311625
 20
31.38983125
 30
0.0
 40
10.05743506622902
100
AcDbArc
 50
248.740907
 51
258.8187031221
  0
ARC
  5
B9
330
A2
100
AcDbEntity
  8
AM_BOR
  6
Continuous
 62
   179
100
AcDbCircle
 10
438.14974625
 20
31.38983125
 30
0.0
 40
10.05743521725483
100
AcDbArc
 50
281.1812968779
 51
291.2590974228
  0
ARC
  5
BA
330
A2
100
AcDbEntity
  8
AM_BOR
  6
Continuous
 62
   179
100
AcDbCircle
 10
441.83146125
 20
20.56595375
 30
0.0
 40
0.7082149999999992
100
AcDbArc
 50
270.0
 51
320.166391
  0
ARC
  5
BB
330
A2
100
AcDbEntity
  8
AM_BOR
  6
Continuous
 62
   179
100
AcDbCircle
 10
443.51677625
 20
20.98744875
 30
0.0
 40
1.438346732092463
100
AcDbArc
 50
209.026101
 51
217.476860457
  0
ARC
  5
BC
330
A2
100
AcDbEntity
  8
AM_BOR
  6
Continuous
 62
   179
100
AcDbCircle
 10
443.83561875
 20
21.0039575
 30
0.0
 40
1.196376307807725
100
AcDbArc
 50
216.6654620813
 51
253.350491
  0
ARC
  5
BD
330
A2
100
AcDbEntity
  8
AM_BOR
  6
Continuous
 62
   179
100
AcDbCircle
 10
443.51677625
 20
20.98744875
 30
0.0
 40
1.438346486490103
100
AcDbArc
 50
227.649871
 51
269.0463685501
  0
ARC
  5
BE
330
A2
100
AcDbEntity
  8
AM_BOR
  6
Continuous
 62
   179
100
AcDbCircle
 10
441.99978375
 20
20.13717625
 30
0.0
 40
0.5878749426457388
100
AcDbArc
 50
270.0
 51
338.785807194
  0
ARC
  5
BF
330
A2
100
AcDbEntity
  8
AM_BOR
  6
Continuous
 62
   179
100
AcDbCircle
 10
443.106455
 20
22.23719
 30
0.0
 40
1.505147499999988
100
AcDbArc
 50
292.312661
 51
353.947544
  0
ARC
  5
C0
330
A2
100
AcDbEntity
  8
AM_BOR
  6
Continuous
 62
   179
100
AcDbCircle
 10
443.18361625
 20
22.5929
 30
0.0
 40
2.115162533513606
100
AcDbArc
 50
319.344946
 51
352.7300681944
  0
ARC
  5
C1
330
A2
100
AcDbEntity
  8
AM_BOR
  6
Continuous
 62
   179
100
AcDbCircle
 10
445.62512875
 20
21.84279375
 30
0.0
 40
1.046240954150348
100
AcDbArc
 50
216.8825686049
 51
243.506241
  0
ARC
  5
C2
330
A2
100
AcDbEntity
  8
AM_BOR
  6
Continuous
 62
   179
100
AcDbCircle
 10
445.23973875
 20
21.33659875
 30
0.0
 40
0.8044207941771518
100
AcDbArc
 50
217.694177
 51
264.1966344737
  0
ARC
  5
C3
330
A2
100
AcDbEntity
  8
AM_BOR
  6
Continuous
 62
   179
100
AcDbCircle
 10
443.18361625
 20
22.5929
 30
0.0
 40
2.115162538176364
100
AcDbArc
 50
283.514185
 51
295.9659488323
  0
LINE
  5
C4
330
A2
100
AcDbEntity
  8
AM_BOR
  6
Continuous
 62
   179
100
AcDbLine
 10
402.9024625
 20
21.27655125
 30
0.0
 11
405.2465875
 21
22.44861375
 31
0.0
  0
LINE
  5
C5
330
A2
100
AcDbEntity
  8
AM_BOR
  6
Continuous
 62
   179
100
AcDbLine
 10
405.2465875
 20
22.44861375
 30
0.0
 11
405.2465875
 21
21.70836375
 31
0.0
  0
LINE
  5
C6
330
A2
100
AcDbEntity
  8
AM_BOR
  6
Continuous
 62
   179
100
AcDbLine
 10
405.2465875
 20
21.70836375
 30
0.0
 11
405.801775
 21
21.70836375
 31
0.0
  0
LINE
  5
C7
330
A2
100
AcDbEntity
  8
AM_BOR
  6
Continuous
 62
   179
100
AcDbLine
 10
405.801775
 20
21.70836375
 30
0.0
 11
405.801775
 21
20.84473875
 31
0.0
  0
LINE
  5
C8
330
A2
100
AcDbEntity
  8
AM_BOR
  6
Continuous
 62
   179
100
AcDbLine
 10
405.801775
 20
20.84473875
 30
0.0
 11
405.2465875
 21
20.84473875
 31
0.0
  0
LINE
  5
C9
330
A2
100
AcDbEntity
  8
AM_BOR
  6
Continuous
 62
   179
100
AcDbLine
 10
405.2465875
 20
20.84473875
 30
0.0
 11
405.2465875
 21
20.10448875
 31
0.0
  0
LINE
  5
CA
330
A2
100
AcDbEntity
  8
AM_BOR
  6
Continuous
 62
   179
100
AcDbLine
 10
405.2465875
 20
20.10448875
 30
0.0
 11
402.9024625
 21
21.27655125
 31
0.0
  0
LINE
  5
CB
330
A2
100
AcDbEntity
  8
AM_BOR
  6
Continuous
 62
   179
100
AcDbLine
 10
405.4933375
 20
19.98111375
 30
0.0
 11
406.2335875
 21
19.98111375
 31
0.0
  0
LINE
  5
CC
330
A2
100
AcDbEntity
  8
AM_BOR
  6
Continuous
 62
   179
100
AcDbLine
 10
406.2335875
 20
19.98111375
 30
0.0
 11
406.2335875
 21
21.02980125
 31
0.0
  0
LINE
  5
CD
330
A2
100
AcDbEntity
  8
AM_BOR
  6
Continuous
 62
   179
100
AcDbLine
 10
406.2335875
 20
21.02980125
 30
0.0
 11
407.7140875
 21
21.02980125
 31
0.0
  0
LINE
  5
CE
330
A2
100
AcDbEntity
  8
AM_BOR
  6
Continuous
 62
   179
100
AcDbLine
 10
407.7140875
 20
21.02980125
 30
0.0
 11
407.7140875
 21
19.98111375
 31
0.0
  0
LINE
  5
CF
330
A2
100
AcDbEntity
  8
AM_BOR
  6
Continuous
 62
   179
100
AcDbLine
 10
407.7140875
 20
19.98111375
 30
0.0
 11
408.4543375
 21
19.98111375
 31
0.0
  0
LINE
  5
D0
330
A2
100
AcDbEntity
  8
AM_BOR
  6
Continuous
 62
   179
100
AcDbLine
 10
408.4543375
 20
19.98111375
 30
0.0
 11
406.9738375
 21
19.24086375
 31
0.0
  0
LINE
  5
D1
330
A2
100
AcDbEntity
  8
AM_BOR
  6
Continuous
 62
   179
100
AcDbLine
 10
406.9738375
 20
19.24086375
 30
0.0
 11
405.4933375
 21
19.98111375
 31
0.0
  0
LINE
  5
D2
330
A2
100
AcDbEntity
  8
AM_BOR
  6
Continuous
 62
   179
100
AcDbLine
 10
406.2335875
 20
21.52330125
 30
0.0
 11
407.7140875
 21
21.52330125
 31
0.0
  0
LINE
  5
D3
330
A2
100
AcDbEntity
  8
AM_BOR
  6
Continuous
 62
   179
100
AcDbLine
 10
407.7140875
 20
21.52330125
 30
0.0
 11
407.7140875
 21
22.57198875
 31
0.0
  0
LINE
  5
D4
330
A2
100
AcDbEntity
  8
AM_BOR
  6
Continuous
 62
   179
100
AcDbLine
 10
407.7140875
 20
22.57198875
 30
0.0
 11
408.4543375
 21
22.57198875
 31
0.0
  0
LINE
  5
D5
330
A2
100
AcDbEntity
  8
AM_BOR
  6
Continuous
 62
   179
100
AcDbLine
 10
408.4543375
 20
22.57198875
 30
0.0
 11
406.9738375
 21
23.31223875
 31
0.0
  0
LINE
  5
D6
330
A2
100
AcDbEntity
  8
AM_BOR
  6
Continuous
 62
   179
100
AcDbLine
 10
406.9738375
 20
23.31223875
 30
0.0
 11
405.4933375
 21
22.57198875
 31
0.0
  0
LINE
  5
D7
330
A2
100
AcDbEntity
  8
AM_BOR
  6
Continuous
 62
   179
100
AcDbLine
 10
405.4933375
 20
22.57198875
 30
0.0
 11
406.2335875
 21
22.57198875
 31
0.0
  0
LINE
  5
D8
330
A2
100
AcDbEntity
  8
AM_BOR
  6
Continuous
 62
   179
100
AcDbLine
 10
406.2335875
 20
22.57198875
 30
0.0
 11
406.2335875
 21
21.52330125
 31
0.0
  0
LINE
  5
D9
330
A2
100
AcDbEntity
  8
AM_BOR
  6
Continuous
 62
   179
100
AcDbLine
 10
408.1459
 20
21.70836375
 30
0.0
 11
408.1459
 21
20.84473875
 31
0.0
  0
LINE
  5
DA
330
A2
100
AcDbEntity
  8
AM_BOR
  6
Continuous
 62
   179
100
AcDbLine
 10
408.1459
 20
20.84473875
 30
0.0
 11
408.7010875
 21
20.84473875
 31
0.0
  0
LINE
  5
DB
330
A2
100
AcDbEntity
  8
AM_BOR
  6
Continuous
 62
   179
100
AcDbLine
 10
408.7010875
 20
20.84473875
 30
0.0
 11
408.7010875
 21
20.10448875
 31
0.0
  0
LINE
  5
DC
330
A2
100
AcDbEntity
  8
AM_BOR
  6
Continuous
 62
   179
100
AcDbLine
 10
408.7010875
 20
20.10448875
 30
0.0
 11
411.0452125
 21
21.27655125
 31
0.0
  0
LINE
  5
DD
330
A2
100
AcDbEntity
  8
AM_BOR
  6
Continuous
 62
   179
100
AcDbLine
 10
411.0452125
 20
21.27655125
 30
0.0
 11
408.7010875
 21
22.44861375
 31
0.0
  0
LINE
  5
DE
330
A2
100
AcDbEntity
  8
AM_BOR
  6
Continuous
 62
   179
100
AcDbLine
 10
408.7010875
 20
22.44861375
 30
0.0
 11
408.7010875
 21
21.70836375
 31
0.0
  0
LINE
  5
DF
330
A2
100
AcDbEntity
  8
AM_BOR
  6
Continuous
 62
   179
100
AcDbLine
 10
408.7010875
 20
21.70836375
 30
0.0
 11
408.1459
 21
21.70836375
 31
0.0
  0
LINE
  5
E0
330
A2
100
AcDbEntity
  8
AM_BOR
  6
Continuous
 62
   179
100
AcDbLine
 10
411.5640866461
 20
20.6692213594
 30
0.0
 11
412.5257125
 21
22.81873875
 31
0.0
  0
LINE
  5
E1
330
A2
100
AcDbEntity
  8
AM_BOR
  6
Continuous
 62
   179
100
AcDbLine
 10
412.5257125
 20
22.81873875
 30
0.0
 11
413.8828375
 21
22.81873875
 31
0.0
  0
LINE
  5
E2
330
A2
100
AcDbEntity
  8
AM_BOR
  6
Continuous
 62
   179
100
AcDbLine
 10
413.8828375
 20
22.81873875
 30
0.0
 11
412.8072525
 21
20.41449
 31
0.0
  0
LINE
  5
E3
330
A2
100
AcDbEntity
  8
AM_BOR
  6
Continuous
 62
   179
100
AcDbLine
 10
411.4723725
 20
19.54930125
 30
0.0
 11
410.6750875
 21
19.54930125
 31
0.0
  0
LINE
  5
E4
330
A2
100
AcDbEntity
  8
AM_BOR
  6
Continuous
 62
   179
100
AcDbLine
 10
410.6750875
 20
19.54930125
 30
0.0
 11
410.8601504042
 21
20.1044886111
 31
0.0
  0
LINE
  5
E5
330
A2
100
AcDbEntity
  8
AM_BOR
  6
Continuous
 62
   179
100
AcDbLine
 10
414.1295875
 20
19.54930125
 30
0.0
 11
414.438025
 21
22.57198875
 31
0.0
  0
LINE
  5
E6
330
A2
100
AcDbEntity
  8
AM_BOR
  6
Continuous
 62
   179
100
AcDbLine
 10
414.438025
 20
22.57198875
 30
0.0
 11
415.671775
 21
22.57198875
 31
0.0
  0
LINE
  5
E7
330
A2
100
AcDbEntity
  8
AM_BOR
  6
Continuous
 62
   179
100
AcDbLine
 10
415.671775
 20
22.57198875
 30
0.0
 11
415.3633375
 21
19.54930125
 31
0.0
  0
LINE
  5
E8
330
A2
100
AcDbEntity
  8
AM_BOR
  6
Continuous
 62
   179
100
AcDbLine
 10
415.3633375
 20
19.54930125
 30
0.0
 11
414.1295875
 21
19.54930125
 31
0.0
  0
LINE
  5
E9
330
A2
100
AcDbEntity
  8
AM_BOR
  6
Continuous
 62
   179
100
AcDbLine
 10
416.28865
 20
19.54930125
 30
0.0
 11
417.645775
 21
19.54930125
 31
0.0
  0
LINE
  5
EA
330
A2
100
AcDbEntity
  8
AM_BOR
  6
Continuous
 62
   179
100
AcDbLine
 10
417.645775
 20
19.54930125
 30
0.0
 11
418.17652
 21
21.89342625
 31
0.0
  0
LINE
  5
EB
330
A2
100
AcDbEntity
  8
AM_BOR
  6
Continuous
 62
   179
100
AcDbLine
 10
418.17652
 20
21.89342625
 30
0.0
 11
419.4964
 21
21.89342625
 31
0.0
  0
LINE
  5
EC
330
A2
100
AcDbEntity
  8
AM_BOR
  6
Continuous
 62
   179
100
AcDbLine
 10
419.4964
 20
21.89342625
 30
0.0
 11
419.23841875
 21
21.14814625
 31
0.0
  0
LINE
  5
ED
330
A2
100
AcDbEntity
  8
AM_BOR
  6
Continuous
 62
   179
100
AcDbLine
 10
418.81232125
 20
20.84473875
 30
0.0
 11
418.386025
 21
20.84473875
 31
0.0
  0
LINE
  5
EE
330
A2
100
AcDbEntity
  8
AM_BOR
  6
Continuous
 62
   179
100
AcDbLine
 10
418.386025
 20
20.84473875
 30
0.0
 11
418.2009625
 21
20.22786375
 31
0.0
  0
LINE
  5
EF
330
A2
100
AcDbEntity
  8
AM_BOR
  6
Continuous
 62
   179
100
AcDbLine
 10
418.2009625
 20
20.22786375
 30
0.0
 11
419.1337575
 21
20.22786375
 31
0.0
  0
LINE
  5
F0
330
A2
100
AcDbEntity
  8
AM_BOR
  6
Continuous
 62
   179
100
AcDbLine
 10
420.3392242597
 20
21.0862317947
 30
0.0
 11
420.853525
 21
22.57198875
 31
0.0
  0
LINE
  5
F1
330
A2
100
AcDbEntity
  8
AM_BOR
  6
Continuous
 62
   179
100
AcDbLine
 10
420.853525
 20
22.57198875
 30
0.0
 11
418.3301575
 21
22.57198875
 31
0.0
  0
LINE
  5
F2
330
A2
100
AcDbEntity
  8
AM_BOR
  6
Continuous
 62
   179
100
AcDbLine
 10
418.3301575
 20
22.57198875
 30
0.0
 11
418.386025
 21
22.81873875
 31
0.0
  0
LINE
  5
F3
330
A2
100
AcDbEntity
  8
AM_BOR
  6
Continuous
 62
   179
100
AcDbLine
 10
418.386025
 20
22.81873875
 30
0.0
 11
417.0289
 21
22.81873875
 31
0.0
  0
LINE
  5
F4
330
A2
100
AcDbEntity
  8
AM_BOR
  6
Continuous
 62
   179
100
AcDbLine
 10
417.0289
 20
22.81873875
 30
0.0
 11
416.9730325
 21
22.57198875
 31
0.0
  0
LINE
  5
F5
330
A2
100
AcDbEntity
  8
AM_BOR
  6
Continuous
 62
   179
100
AcDbLine
 10
416.9730325
 20
22.57198875
 30
0.0
 11
416.2269625
 21
22.57198875
 31
0.0
  0
LINE
  5
F6
330
A2
100
AcDbEntity
  8
AM_BOR
  6
Continuous
 62
   179
100
AcDbLine
 10
416.2269625
 20
22.57198875
 30
0.0
 11
416.0419
 21
21.89342625
 31
0.0
  0
LINE
  5
F7
330
A2
100
AcDbEntity
  8
AM_BOR
  6
Continuous
 62
   179
100
AcDbLine
 10
416.0419
 20
21.89342625
 30
0.0
 11
416.819395
 21
21.89342625
 31
0.0
  0
LINE
  5
F8
330
A2
100
AcDbEntity
  8
AM_BOR
  6
Continuous
 62
   179
100
AcDbLine
 10
416.819395
 20
21.89342625
 30
0.0
 11
416.28865
 21
19.54930125
 31
0.0
  0
LINE
  5
F9
330
A2
100
AcDbEntity
  8
AM_BOR
  6
Continuous
 62
   179
100
AcDbLine
 10
420.5450875
 20
19.85773875
 30
0.0
 11
424.308025
 21
19.54930125
 31
0.0
  0
LINE
  5
FA
330
A2
100
AcDbEntity
  8
AM_BOR
  6
Continuous
 62
   179
100
AcDbLine
 10
424.308025
 20
19.54930125
 30
0.0
 11
424.554775
 21
20.47461375
 31
0.0
  0
LINE
  5
FB
330
A2
100
AcDbEntity
  8
AM_BOR
  6
Continuous
 62
   179
100
AcDbLine
 10
424.554775
 20
20.47461375
 30
0.0
 11
420.7918375
 21
20.78305125
 31
0.0
  0
LINE
  5
FC
330
A2
100
AcDbEntity
  8
AM_BOR
  6
Continuous
 62
   179
100
AcDbLine
 10
420.7918375
 20
20.78305125
 30
0.0
 11
420.5450875
 21
19.85773875
 31
0.0
  0
LINE
  5
FD
330
A2
100
AcDbEntity
  8
AM_BOR
  6
Continuous
 62
   179
100
AcDbLine
 10
421.100275
 20
21.21486375
 30
0.0
 11
421.265215
 21
21.8333875
 31
0.0
  0
LINE
  5
FE
330
A2
100
AcDbEntity
  8
AM_BOR
  6
Continuous
 62
   179
100
AcDbLine
 10
421.265215
 20
21.8333875
 30
0.0
 11
424.52911
 21
21.56585625
 31
0.0
  0
LINE
  5
FF
330
A2
100
AcDbEntity
  8
AM_BOR
  6
Continuous
 62
   179
100
AcDbLine
 10
424.52911
 20
21.56585625
 30
0.0
 11
424.36417
 21
20.94733125
 31
0.0
  0
LINE
  5
100
330
A2
100
AcDbEntity
  8
AM_BOR
  6
Continuous
 62
   179
100
AcDbLine
 10
424.36417
 20
20.94733125
 30
0.0
 11
421.100275
 21
21.21486375
 31
0.0
  0
LINE
  5
101
330
A2
100
AcDbEntity
  8
AM_BOR
  6
Continuous
 62
   179
100
AcDbLine
 10
421.22365
 20
22.20186375
 30
0.0
 11
424.745115
 21
21.91321875
 31
0.0
  0
LINE
  5
102
330
A2
100
AcDbEntity
  8
AM_BOR
  6
Continuous
 62
   179
100
AcDbLine
 10
424.745115
 20
21.91321875
 30
0.0
 11
424.92483375
 21
22.58716375
 31
0.0
  0
LINE
  5
103
330
A2
100
AcDbEntity
  8
AM_BOR
  6
Continuous
 62
   179
100
AcDbLine
 10
424.92483375
 20
22.58716375
 30
0.0
 11
421.40336875
 21
22.8758075
 31
0.0
  0
LINE
  5
104
330
A2
100
AcDbEntity
  8
AM_BOR
  6
Continuous
 62
   179
100
AcDbLine
 10
421.40336875
 20
22.8758075
 30
0.0
 11
421.22365
 21
22.20186375
 31
0.0
  0
LINE
  5
105
330
A2
100
AcDbEntity
  8
AM_BOR
  6
Continuous
 62
   179
100
AcDbLine
 10
425.4184
 20
22.32523875
 30
0.0
 11
425.4184
 21
22.01680125
 31
0.0
  0
LINE
  5
106
330
A2
100
AcDbEntity
  8
AM_BOR
  6
Continuous
 62
   179
100
AcDbLine
 10
425.4184
 20
22.01680125
 30
0.0
 11
426.5904625
 21
22.01680125
 31
0.0
  0
LINE
  5
107
330
A2
100
AcDbEntity
  8
AM_BOR
  6
Continuous
 62
   179
100
AcDbLine
 10
426.5904625
 20
22.01680125
 30
0.0
 11
426.5904625
 21
19.85773875
 31
0.0
  0
LINE
  5
108
330
A2
100
AcDbEntity
  8
AM_BOR
  6
Continuous
 62
   179
100
AcDbLine
 10
426.5904625
 20
19.85773875
 30
0.0
 11
425.17165
 21
19.85773875
 31
0.0
  0
LINE
  5
109
330
A2
100
AcDbEntity
  8
AM_BOR
  6
Continuous
 62
   179
100
AcDbLine
 10
425.17165
 20
19.85773875
 30
0.0
 11
425.17165
 21
19.54930125
 31
0.0
  0
LINE
  5
10A
330
A2
100
AcDbEntity
  8
AM_BOR
  6
Continuous
 62
   179
100
AcDbLine
 10
425.17165
 20
19.54930125
 30
0.0
 11
428.62615
 21
19.54930125
 31
0.0
  0
LINE
  5
10B
330
A2
100
AcDbEntity
  8
AM_BOR
  6
Continuous
 62
   179
100
AcDbLine
 10
428.62615
 20
19.54930125
 30
0.0
 11
428.62615
 21
19.85773875
 31
0.0
  0
LINE
  5
10C
330
A2
100
AcDbEntity
  8
AM_BOR
  6
Continuous
 62
   179
100
AcDbLine
 10
428.62615
 20
19.85773875
 30
0.0
 11
427.2073375
 21
19.85773875
 31
0.0
  0
LINE
  5
10D
330
A2
100
AcDbEntity
  8
AM_BOR
  6
Continuous
 62
   179
100
AcDbLine
 10
427.2073375
 20
19.85773875
 30
0.0
 11
427.2073375
 21
22.01680125
 31
0.0
  0
LINE
  5
10E
330
A2
100
AcDbEntity
  8
AM_BOR
  6
Continuous
 62
   179
100
AcDbLine
 10
427.2073375
 20
22.01680125
 30
0.0
 11
428.3794
 21
22.01680125
 31
0.0
  0
LINE
  5
10F
330
A2
100
AcDbEntity
  8
AM_BOR
  6
Continuous
 62
   179
100
AcDbLine
 10
428.3794
 20
22.01680125
 30
0.0
 11
428.3794
 21
22.32523875
 31
0.0
  0
LINE
  5
110
330
A2
100
AcDbEntity
  8
AM_BOR
  6
Continuous
 62
   179
100
AcDbLine
 10
428.3794
 20
22.32523875
 30
0.0
 11
425.4184
 21
22.32523875
 31
0.0
  0
LINE
  5
111
330
A2
100
AcDbEntity
  8
AM_BOR
  6
Continuous
 62
   179
100
AcDbLine
 10
428.996275
 20
21.77005125
 30
0.0
 11
428.996275
 21
20.3312975
 31
0.0
  0
LINE
  5
112
330
A2
100
AcDbEntity
  8
AM_BOR
  6
Continuous
 62
   179
100
AcDbLine
 10
428.8149331097
 20
19.7904404574
 30
0.0
 11
428.94292375
 21
19.56875375
 31
0.0
  0
LINE
  5
113
330
A2
100
AcDbEntity
  8
AM_BOR
  6
Continuous
 62
   179
100
AcDbLine
 10
429.51085125
 20
20.35123875
 30
0.0
 11
429.51085125
 21
21.46161375
 31
0.0
  0
LINE
  5
114
330
A2
100
AcDbEntity
  8
AM_BOR
  6
Continuous
 62
   179
100
AcDbLine
 10
429.51085125
 20
21.46161375
 30
0.0
 11
432.450775
 21
21.46161375
 31
0.0
  0
LINE
  5
115
330
A2
100
AcDbEntity
  8
AM_BOR
  6
Continuous
 62
   179
100
AcDbLine
 10
432.450775
 20
21.46161375
 30
0.0
 11
432.450775
 21
21.77005125
 31
0.0
  0
LINE
  5
116
330
A2
100
AcDbEntity
  8
AM_BOR
  6
Continuous
 62
   179
100
AcDbLine
 10
432.450775
 20
21.77005125
 30
0.0
 11
431.8339
 21
21.77005125
 31
0.0
  0
LINE
  5
117
330
A2
100
AcDbEntity
  8
AM_BOR
  6
Continuous
 62
   179
100
AcDbLine
 10
431.8339
 20
21.77005125
 30
0.0
 11
431.8339
 21
22.07848875
 31
0.0
  0
LINE
  5
118
330
A2
100
AcDbEntity
  8
AM_BOR
  6
Continuous
 62
   179
100
AcDbLine
 10
431.8339
 20
22.07848875
 30
0.0
 11
432.450775
 21
22.07848875
 31
0.0
  0
LINE
  5
119
330
A2
100
AcDbEntity
  8
AM_BOR
  6
Continuous
 62
   179
100
AcDbLine
 10
432.450775
 20
22.07848875
 30
0.0
 11
432.450775
 21
22.32523875
 31
0.0
  0
LINE
  5
11A
330
A2
100
AcDbEntity
  8
AM_BOR
  6
Continuous
 62
   179
100
AcDbLine
 10
432.450775
 20
22.32523875
 30
0.0
 11
431.09365
 21
22.32523875
 31
0.0
  0
LINE
  5
11B
330
A2
100
AcDbEntity
  8
AM_BOR
  6
Continuous
 62
   179
100
AcDbLine
 10
431.09365
 20
22.32523875
 30
0.0
 11
431.09365
 21
22.57198875
 31
0.0
  0
LINE
  5
11C
330
A2
100
AcDbEntity
  8
AM_BOR
  6
Continuous
 62
   179
100
AcDbLine
 10
431.09365
 20
22.57198875
 30
0.0
 11
430.476775
 21
22.57198875
 31
0.0
  0
LINE
  5
11D
330
A2
100
AcDbEntity
  8
AM_BOR
  6
Continuous
 62
   179
100
AcDbLine
 10
430.476775
 20
22.57198875
 30
0.0
 11
430.476775
 21
22.32523875
 31
0.0
  0
LINE
  5
11E
330
A2
100
AcDbEntity
  8
AM_BOR
  6
Continuous
 62
   179
100
AcDbLine
 10
430.476775
 20
22.32523875
 30
0.0
 11
429.0579625
 21
22.32523875
 31
0.0
  0
LINE
  5
11F
330
A2
100
AcDbEntity
  8
AM_BOR
  6
Continuous
 62
   179
100
AcDbLine
 10
429.0579625
 20
22.32523875
 30
0.0
 11
429.0579625
 21
22.07848875
 31
0.0
  0
LINE
  5
120
330
A2
100
AcDbEntity
  8
AM_BOR
  6
Continuous
 62
   179
100
AcDbLine
 10
429.0579625
 20
22.07848875
 30
0.0
 11
429.7982125
 21
22.07848875
 31
0.0
  0
LINE
  5
121
330
A2
100
AcDbEntity
  8
AM_BOR
  6
Continuous
 62
   179
100
AcDbLine
 10
429.7982125
 20
22.07848875
 30
0.0
 11
429.7982125
 21
21.77005125
 31
0.0
  0
LINE
  5
122
330
A2
100
AcDbEntity
  8
AM_BOR
  6
Continuous
 62
   179
100
AcDbLine
 10
429.7982125
 20
21.77005125
 30
0.0
 11
428.996275
 21
21.77005125
 31
0.0
  0
LINE
  5
123
330
A2
100
AcDbEntity
  8
AM_BOR
  6
Continuous
 62
   179
100
AcDbLine
 10
429.6748375
 20
21.27655125
 30
0.0
 11
430.08261125
 21
21.27655125
 31
0.0
  0
LINE
  5
124
330
A2
100
AcDbEntity
  8
AM_BOR
  6
Continuous
 62
   179
100
AcDbLine
 10
430.08261125
 20
21.27655125
 30
0.0
 11
430.08261125
 21
21.02980125
 31
0.0
  0
LINE
  5
125
330
A2
100
AcDbEntity
  8
AM_BOR
  6
Continuous
 62
   179
100
AcDbLine
 10
430.08261125
 20
21.02980125
 30
0.0
 11
430.8469
 21
21.02980125
 31
0.0
  0
LINE
  5
126
330
A2
100
AcDbEntity
  8
AM_BOR
  6
Continuous
 62
   179
100
AcDbLine
 10
430.8469
 20
21.02980125
 30
0.0
 11
430.8469
 21
21.27655125
 31
0.0
  0
LINE
  5
127
330
A2
100
AcDbEntity
  8
AM_BOR
  6
Continuous
 62
   179
100
AcDbLine
 10
430.8469
 20
21.27655125
 30
0.0
 11
431.3404
 21
21.27655125
 31
0.0
  0
LINE
  5
128
330
A2
100
AcDbEntity
  8
AM_BOR
  6
Continuous
 62
   179
100
AcDbLine
 10
431.3404
 20
21.27655125
 30
0.0
 11
431.3404
 21
21.02980125
 31
0.0
  0
LINE
  5
129
330
A2
100
AcDbEntity
  8
AM_BOR
  6
Continuous
 62
   179
100
AcDbLine
 10
431.3404
 20
21.02980125
 30
0.0
 11
432.3890875
 21
21.02980125
 31
0.0
  0
LINE
  5
12A
330
A2
100
AcDbEntity
  8
AM_BOR
  6
Continuous
 62
   179
100
AcDbLine
 10
432.3890875
 20
21.02980125
 30
0.0
 11
432.3890875
 21
20.78305125
 31
0.0
  0
LINE
  5
12B
330
A2
100
AcDbEntity
  8
AM_BOR
  6
Continuous
 62
   179
100
AcDbLine
 10
432.3890875
 20
20.78305125
 30
0.0
 11
431.3404
 21
20.78305125
 31
0.0
  0
LINE
  5
12C
330
A2
100
AcDbEntity
  8
AM_BOR
  6
Continuous
 62
   179
100
AcDbLine
 10
431.3404
 20
20.78305125
 30
0.0
 11
431.3404
 21
20.43181375
 31
0.0
  0
LINE
  5
12D
330
A2
100
AcDbEntity
  8
AM_BOR
  6
Continuous
 62
   179
100
AcDbLine
 10
431.3404
 20
20.18506375
 30
0.0
 11
431.3404
 21
19.85773875
 31
0.0
  0
LINE
  5
12E
330
A2
100
AcDbEntity
  8
AM_BOR
  6
Continuous
 62
   179
100
AcDbLine
 10
431.3404
 20
19.85773875
 30
0.0
 11
432.450775
 21
19.85773875
 31
0.0
  0
LINE
  5
12F
330
A2
100
AcDbEntity
  8
AM_BOR
  6
Continuous
 62
   179
100
AcDbLine
 10
432.450775
 20
19.85773875
 30
0.0
 11
432.450775
 21
19.54930125
 31
0.0
  0
LINE
  5
130
330
A2
100
AcDbEntity
  8
AM_BOR
  6
Continuous
 62
   179
100
AcDbLine
 10
432.450775
 20
19.54930125
 30
0.0
 11
429.736525
 21
19.54930125
 31
0.0
  0
LINE
  5
131
330
A2
100
AcDbEntity
  8
AM_BOR
  6
Continuous
 62
   179
100
AcDbLine
 10
429.736525
 20
19.54930125
 30
0.0
 11
429.736525
 21
19.85773875
 31
0.0
  0
LINE
  5
132
330
A2
100
AcDbEntity
  8
AM_BOR
  6
Continuous
 62
   179
100
AcDbLine
 10
429.736525
 20
19.85773875
 30
0.0
 11
430.8469
 21
19.85773875
 31
0.0
  0
LINE
  5
133
330
A2
100
AcDbEntity
  8
AM_BOR
  6
Continuous
 62
   179
100
AcDbLine
 10
430.8469
 20
19.85773875
 30
0.0
 11
430.8469
 21
20.18506375
 31
0.0
  0
LINE
  5
134
330
A2
100
AcDbEntity
  8
AM_BOR
  6
Continuous
 62
   179
100
AcDbLine
 10
430.8469
 20
20.18506375
 30
0.0
 11
429.8582825
 21
20.18506375
 31
0.0
  0
LINE
  5
135
330
A2
100
AcDbEntity
  8
AM_BOR
  6
Continuous
 62
   179
100
AcDbLine
 10
429.8582825
 20
20.18506375
 30
0.0
 11
429.8582825
 21
20.43181375
 31
0.0
  0
LINE
  5
136
330
A2
100
AcDbEntity
  8
AM_BOR
  6
Continuous
 62
   179
100
AcDbLine
 10
429.6748375
 20
20.78305125
 30
0.0
 11
429.6748375
 21
21.27655125
 31
0.0
  0
LINE
  5
137
330
A2
100
AcDbEntity
  8
AM_BOR
  6
Continuous
 62
   179
100
AcDbLine
 10
429.6748375
 20
20.78305125
 30
0.0
 11
430.8469
 21
20.78305125
 31
0.0
  0
LINE
  5
138
330
A2
100
AcDbEntity
  8
AM_BOR
  6
Continuous
 62
   179
100
AcDbLine
 10
430.8469
 20
20.78305125
 30
0.0
 11
430.8469
 21
20.43181375
 31
0.0
  0
LINE
  5
139
330
A2
100
AcDbEntity
  8
AM_BOR
  6
Continuous
 62
   179
100
AcDbLine
 10
431.3404
 20
20.18506375
 30
0.0
 11
432.2599175
 21
20.18506375
 31
0.0
  0
LINE
  5
13A
330
A2
100
AcDbEntity
  8
AM_BOR
  6
Continuous
 62
   179
100
AcDbLine
 10
432.2599175
 20
20.18506375
 30
0.0
 11
432.2599175
 21
20.43181375
 31
0.0
  0
LINE
  5
13B
330
A2
100
AcDbEntity
  8
AM_BOR
  6
Continuous
 62
   179
100
AcDbLine
 10
433.06765
 20
21.2847775
 30
0.0
 11
433.06765
 21
22.01680125
 31
0.0
  0
LINE
  5
13C
330
A2
100
AcDbEntity
  8
AM_BOR
  6
Continuous
 62
   179
100
AcDbLine
 10
433.06765
 20
22.01680125
 30
0.0
 11
432.697525
 21
22.01680125
 31
0.0
  0
LINE
  5
13D
330
A2
100
AcDbEntity
  8
AM_BOR
  6
Continuous
 62
   179
100
AcDbLine
 10
432.697525
 20
22.01680125
 30
0.0
 11
432.697525
 21
22.32523875
 31
0.0
  0
LINE
  5
13E
330
A2
100
AcDbEntity
  8
AM_BOR
  6
Continuous
 62
   179
100
AcDbLine
 10
432.697525
 20
22.32523875
 30
0.0
 11
433.06765
 21
22.32523875
 31
0.0
  0
LINE
  5
13F
330
A2
100
AcDbEntity
  8
AM_BOR
  6
Continuous
 62
   179
100
AcDbLine
 10
433.06765
 20
22.32523875
 30
0.0
 11
433.06765
 21
22.57198875
 31
0.0
  0
LINE
  5
140
330
A2
100
AcDbEntity
  8
AM_BOR
  6
Continuous
 62
   179
100
AcDbLine
 10
433.06765
 20
22.57198875
 30
0.0
 11
433.56115
 21
22.57198875
 31
0.0
  0
LINE
  5
141
330
A2
100
AcDbEntity
  8
AM_BOR
  6
Continuous
 62
   179
100
AcDbLine
 10
433.56115
 20
22.57198875
 30
0.0
 11
433.56115
 21
22.32523875
 31
0.0
  0
LINE
  5
142
330
A2
100
AcDbEntity
  8
AM_BOR
  6
Continuous
 62
   179
100
AcDbLine
 10
433.56115
 20
22.32523875
 30
0.0
 11
433.931275
 21
22.32523875
 31
0.0
  0
LINE
  5
143
330
A2
100
AcDbEntity
  8
AM_BOR
  6
Continuous
 62
   179
100
AcDbLine
 10
433.931275
 20
22.32523875
 30
0.0
 11
433.931275
 21
22.01680125
 31
0.0
  0
LINE
  5
144
330
A2
100
AcDbEntity
  8
AM_BOR
  6
Continuous
 62
   179
100
AcDbLine
 10
433.931275
 20
22.01680125
 30
0.0
 11
433.56115
 21
22.01680125
 31
0.0
  0
LINE
  5
145
330
A2
100
AcDbEntity
  8
AM_BOR
  6
Continuous
 62
   179
100
AcDbLine
 10
433.56115
 20
22.01680125
 30
0.0
 11
433.56115
 21
21.7963775
 31
0.0
  0
LINE
  5
146
330
A2
100
AcDbEntity
  8
AM_BOR
  6
Continuous
 62
   179
100
AcDbLine
 10
433.869587921
 20
21.3999261588
 30
0.0
 11
433.869587921
 21
21.09148875
 31
0.0
  0
LINE
  5
147
330
A2
100
AcDbEntity
  8
AM_BOR
  6
Continuous
 62
   179
100
AcDbLine
 10
433.8695875
 20
21.09148875
 30
0.0
 11
433.56115
 21
21.2030225
 31
0.0
  0
LINE
  5
148
330
A2
100
AcDbEntity
  8
AM_BOR
  6
Continuous
 62
   179
100
AcDbLine
 10
433.56115
 20
21.2030225
 30
0.0
 11
433.56115
 21
19.54930125
 31
0.0
  0
LINE
  5
149
330
A2
100
AcDbEntity
  8
AM_BOR
  6
Continuous
 62
   179
100
AcDbLine
 10
433.56115
 20
19.54930125
 30
0.0
 11
433.06765
 21
19.54930125
 31
0.0
  0
LINE
  5
14A
330
A2
100
AcDbEntity
  8
AM_BOR
  6
Continuous
 62
   179
100
AcDbLine
 10
433.06765
 20
19.54930125
 30
0.0
 11
433.06765
 21
20.37271875
 31
0.0
  0
LINE
  5
14B
330
A2
100
AcDbEntity
  8
AM_BOR
  6
Continuous
 62
   179
100
AcDbLine
 10
432.6358376223
 20
20.1661771434
 30
0.0
 11
432.6358376223
 21
20.59798908
 31
0.0
  0
LINE
  5
14C
330
A2
100
AcDbEntity
  8
AM_BOR
  6
Continuous
 62
   179
100
AcDbLine
 10
433.98483875
 20
21.27655125
 30
0.0
 11
434.3630875
 21
21.27655125
 31
0.0
  0
LINE
  5
14D
330
A2
100
AcDbEntity
  8
AM_BOR
  6
Continuous
 62
   179
100
AcDbLine
 10
434.3630875
 20
21.27655125
 30
0.0
 11
434.3630875
 21
20.92950375
 31
0.0
  0
LINE
  5
14E
330
A2
100
AcDbEntity
  8
AM_BOR
  6
Continuous
 62
   179
100
AcDbLine
 10
433.9312750632
 20
19.7960513446
 30
0.0
 11
433.9312750632
 21
19.54930125
 31
0.0
  0
LINE
  5
14F
330
A2
100
AcDbEntity
  8
AM_BOR
  6
Continuous
 62
   179
100
AcDbLine
 10
434.7948995072
 20
20.6219477231
 30
0.0
 11
434.7948995072
 21
19.54930125
 31
0.0
  0
LINE
  5
150
330
A2
100
AcDbEntity
  8
AM_BOR
  6
Continuous
 62
   179
100
AcDbLine
 10
434.7949
 20
19.54930125
 30
0.0
 11
435.3500875
 21
19.54930125
 31
0.0
  0
LINE
  5
151
330
A2
100
AcDbEntity
  8
AM_BOR
  6
Continuous
 62
   179
100
AcDbLine
 10
435.3500875
 20
19.54930125
 30
0.0
 11
435.3500875
 21
20.6219475
 31
0.0
  0
LINE
  5
152
330
A2
100
AcDbEntity
  8
AM_BOR
  6
Continuous
 62
   179
100
AcDbLine
 10
436.213712896
 20
19.5493013499
 30
0.0
 11
436.213712896
 21
19.79605125
 31
0.0
  0
LINE
  5
153
330
A2
100
AcDbEntity
  8
AM_BOR
  6
Continuous
 62
   179
100
AcDbLine
 10
435.7819
 20
20.92950375
 30
0.0
 11
435.7819
 21
21.27655125
 31
0.0
  0
LINE
  5
154
330
A2
100
AcDbEntity
  8
AM_BOR
  6
Continuous
 62
   179
100
AcDbLine
 10
435.7819
 20
21.27655125
 30
0.0
 11
436.2137125
 21
21.27655125
 31
0.0
  0
LINE
  5
155
330
A2
100
AcDbEntity
  8
AM_BOR
  6
Continuous
 62
   179
100
AcDbLine
 10
436.2137125
 20
21.27655125
 30
0.0
 11
436.2137125
 21
21.52330125
 31
0.0
  0
LINE
  5
156
330
A2
100
AcDbEntity
  8
AM_BOR
  6
Continuous
 62
   179
100
AcDbLine
 10
436.2137125
 20
21.52330125
 30
0.0
 11
435.3500875
 21
21.52330125
 31
0.0
  0
LINE
  5
157
330
A2
100
AcDbEntity
  8
AM_BOR
  6
Continuous
 62
   179
100
AcDbLine
 10
435.3500875
 20
21.52330125
 30
0.0
 11
435.3500875
 21
22.07848875
 31
0.0
  0
LINE
  5
158
330
A2
100
AcDbEntity
  8
AM_BOR
  6
Continuous
 62
   179
100
AcDbLine
 10
435.3500875
 20
22.07848875
 30
0.0
 11
436.0903375
 21
22.07848875
 31
0.0
  0
LINE
  5
159
330
A2
100
AcDbEntity
  8
AM_BOR
  6
Continuous
 62
   179
100
AcDbLine
 10
436.0903375
 20
22.07848875
 30
0.0
 11
436.0903375
 21
22.32523875
 31
0.0
  0
LINE
  5
15A
330
A2
100
AcDbEntity
  8
AM_BOR
  6
Continuous
 62
   179
100
AcDbLine
 10
436.0903375
 20
22.32523875
 30
0.0
 11
435.3500875
 21
22.32523875
 31
0.0
  0
LINE
  5
15B
330
A2
100
AcDbEntity
  8
AM_BOR
  6
Continuous
 62
   179
100
AcDbLine
 10
435.3500875
 20
22.32523875
 30
0.0
 11
435.3500875
 21
22.57198875
 31
0.0
  0
LINE
  5
15C
330
A2
100
AcDbEntity
  8
AM_BOR
  6
Continuous
 62
   179
100
AcDbLine
 10
435.3500875
 20
22.57198875
 30
0.0
 11
434.7949
 21
22.57198875
 31
0.0
  0
LINE
  5
15D
330
A2
100
AcDbEntity
  8
AM_BOR
  6
Continuous
 62
   179
100
AcDbLine
 10
434.7949
 20
22.57198875
 30
0.0
 11
434.7949
 21
22.32523875
 31
0.0
  0
LINE
  5
15E
330
A2
100
AcDbEntity
  8
AM_BOR
  6
Continuous
 62
   179
100
AcDbLine
 10
434.7949
 20
22.32523875
 30
0.0
 11
434.6098375
 21
22.32523875
 31
0.0
  0
LINE
  5
15F
330
A2
100
AcDbEntity
  8
AM_BOR
  6
Continuous
 62
   179
100
AcDbLine
 10
434.6098375
 20
22.32523875
 30
0.0
 11
434.6098375
 21
22.57198875
 31
0.0
  0
LINE
  5
160
330
A2
100
AcDbEntity
  8
AM_BOR
  6
Continuous
 62
   179
100
AcDbLine
 10
434.6098375
 20
22.57198875
 30
0.0
 11
434.1163375
 21
22.57198875
 31
0.0
  0
LINE
  5
161
330
A2
100
AcDbEntity
  8
AM_BOR
  6
Continuous
 62
   179
100
AcDbLine
 10
434.1163375
 20
22.57198875
 30
0.0
 11
434.1163375
 21
22.32667625
 31
0.0
  0
LINE
  5
162
330
A2
100
AcDbEntity
  8
AM_BOR
  6
Continuous
 62
   179
100
AcDbLine
 10
433.8815669143
 20
21.7120349846
 30
0.0
 11
433.98483875
 21
21.52330125
 31
0.0
  0
LINE
  5
163
330
A2
100
AcDbEntity
  8
AM_BOR
  6
Continuous
 62
   179
100
AcDbLine
 10
433.98483875
 20
21.52330125
 30
0.0
 11
433.98483875
 21
21.27655125
 31
0.0
  0
LINE
  5
164
330
A2
100
AcDbEntity
  8
AM_BOR
  6
Continuous
 62
   179
100
AcDbLine
 10
434.6092515229
 20
22.0784892348
 30
0.0
 11
434.7949
 21
22.0784892348
 31
0.0
  0
LINE
  5
165
330
A2
100
AcDbEntity
  8
AM_BOR
  6
Continuous
 62
   179
100
AcDbLine
 10
434.7949
 20
22.07848875
 30
0.0
 11
434.7949
 21
21.52330125
 31
0.0
  0
LINE
  5
166
330
A2
100
AcDbEntity
  8
AM_BOR
  6
Continuous
 62
   179
100
AcDbLine
 10
434.7949
 20
21.52330125
 30
0.0
 11
434.1110593251
 21
21.5233019006
 31
0.0
  0
LINE
  5
167
330
A2
100
AcDbEntity
  8
AM_BOR
  6
Continuous
 62
   179
100
AcDbLine
 10
436.398775
 20
21.52330125
 30
0.0
 11
436.398775
 21
21.21486375
 31
0.0
  0
LINE
  5
168
330
A2
100
AcDbEntity
  8
AM_BOR
  6
Continuous
 62
   179
100
AcDbLine
 10
436.398775
 20
21.21486375
 30
0.0
 11
437.139025
 21
21.21486375
 31
0.0
  0
LINE
  5
169
330
A2
100
AcDbEntity
  8
AM_BOR
  6
Continuous
 62
   179
100
AcDbLine
 10
437.139025
 20
21.21486375
 30
0.0
 11
437.139025
 21
19.85773875
 31
0.0
  0
LINE
  5
16A
330
A2
100
AcDbEntity
  8
AM_BOR
  6
Continuous
 62
   179
100
AcDbLine
 10
437.139025
 20
19.85773875
 30
0.0
 11
436.4604625
 21
19.85773875
 31
0.0
  0
LINE
  5
16B
330
A2
100
AcDbEntity
  8
AM_BOR
  6
Continuous
 62
   179
100
AcDbLine
 10
436.4604625
 20
19.85773875
 30
0.0
 11
436.4604625
 21
19.54930125
 31
0.0
  0
LINE
  5
16C
330
A2
100
AcDbEntity
  8
AM_BOR
  6
Continuous
 62
   179
100
AcDbLine
 10
436.4604625
 20
19.54930125
 30
0.0
 11
438.7429
 21
19.54930125
 31
0.0
  0
LINE
  5
16D
330
A2
100
AcDbEntity
  8
AM_BOR
  6
Continuous
 62
   179
100
AcDbLine
 10
438.7429
 20
19.54930125
 30
0.0
 11
438.7429
 21
19.85773875
 31
0.0
  0
LINE
  5
16E
330
A2
100
AcDbEntity
  8
AM_BOR
  6
Continuous
 62
   179
100
AcDbLine
 10
438.7429
 20
19.85773875
 30
0.0
 11
437.6942125
 21
19.85773875
 31
0.0
  0
LINE
  5
16F
330
A2
100
AcDbEntity
  8
AM_BOR
  6
Continuous
 62
   179
100
AcDbLine
 10
437.6942125
 20
19.85773875
 30
0.0
 11
437.6942125
 21
21.21486375
 31
0.0
  0
LINE
  5
170
330
A2
100
AcDbEntity
  8
AM_BOR
  6
Continuous
 62
   179
100
AcDbLine
 10
437.6942125
 20
21.21486375
 30
0.0
 11
438.37408625
 21
21.21486375
 31
0.0
  0
LINE
  5
171
330
A2
100
AcDbEntity
  8
AM_BOR
  6
Continuous
 62
   179
100
AcDbLine
 10
439.7915876067
 20
19.5493015866
 30
0.0
 11
439.7915876067
 21
19.85773875
 31
0.0
  0
LINE
  5
172
330
A2
100
AcDbEntity
  8
AM_BOR
  6
Continuous
 62
   179
100
AcDbLine
 10
438.98965
 20
21.301965
 30
0.0
 11
438.98965
 21
22.07848875
 31
0.0
  0
LINE
  5
173
330
A2
100
AcDbEntity
  8
AM_BOR
  6
Continuous
 62
   179
100
AcDbLine
 10
438.98965
 20
22.07848875
 30
0.0
 11
439.853275
 21
22.07848875
 31
0.0
  0
LINE
  5
174
330
A2
100
AcDbEntity
  8
AM_BOR
  6
Continuous
 62
   179
100
AcDbLine
 10
439.853275
 20
22.07848875
 30
0.0
 11
439.853275
 21
22.57198875
 31
0.0
  0
LINE
  5
175
330
A2
100
AcDbEntity
  8
AM_BOR
  6
Continuous
 62
   179
100
AcDbLine
 10
439.853275
 20
22.57198875
 30
0.0
 11
439.43117875
 21
22.57198875
 31
0.0
  0
LINE
  5
176
330
A2
100
AcDbEntity
  8
AM_BOR
  6
Continuous
 62
   179
100
AcDbLine
 10
439.43117875
 20
22.57198875
 30
0.0
 11
439.43117875
 21
22.32523875
 31
0.0
  0
LINE
  5
177
330
A2
100
AcDbEntity
  8
AM_BOR
  6
Continuous
 62
   179
100
AcDbLine
 10
439.43117875
 20
22.32523875
 30
0.0
 11
438.98965
 21
22.32523875
 31
0.0
  0
LINE
  5
178
330
A2
100
AcDbEntity
  8
AM_BOR
  6
Continuous
 62
   179
100
AcDbLine
 10
438.98965
 20
22.32523875
 30
0.0
 11
438.98965
 21
22.57198875
 31
0.0
  0
LINE
  5
179
330
A2
100
AcDbEntity
  8
AM_BOR
  6
Continuous
 62
   179
100
AcDbLine
 10
438.98965
 20
22.57198875
 30
0.0
 11
438.372775
 21
22.57198875
 31
0.0
  0
LINE
  5
17A
330
A2
100
AcDbEntity
  8
AM_BOR
  6
Continuous
 62
   179
100
AcDbLine
 10
438.372775
 20
22.57198875
 30
0.0
 11
438.372775
 21
22.32523875
 31
0.0
  0
LINE
  5
17B
330
A2
100
AcDbEntity
  8
AM_BOR
  6
Continuous
 62
   179
100
AcDbLine
 10
438.372775
 20
22.32523875
 30
0.0
 11
436.4604625
 21
22.32523875
 31
0.0
  0
LINE
  5
17C
330
A2
100
AcDbEntity
  8
AM_BOR
  6
Continuous
 62
   179
100
AcDbLine
 10
436.4604625
 20
22.32523875
 30
0.0
 11
436.4604625
 21
22.07848875
 31
0.0
  0
LINE
  5
17D
330
A2
100
AcDbEntity
  8
AM_BOR
  6
Continuous
 62
   179
100
AcDbLine
 10
436.4604625
 20
22.07848875
 30
0.0
 11
438.372775
 21
22.07848875
 31
0.0
  0
LINE
  5
17E
330
A2
100
AcDbEntity
  8
AM_BOR
  6
Continuous
 62
   179
100
AcDbLine
 10
438.372775
 20
22.07848875
 30
0.0
 11
438.372775
 21
21.52330125
 31
0.0
  0
LINE
  5
17F
330
A2
100
AcDbEntity
  8
AM_BOR
  6
Continuous
 62
   179
100
AcDbLine
 10
438.372775
 20
21.52330125
 30
0.0
 11
436.398775
 21
21.52330125
 31
0.0
  0
LINE
  5
180
330
A2
100
AcDbEntity
  8
AM_BOR
  6
Continuous
 62
   179
100
AcDbLine
 10
440.100025
 20
21.52330125
 30
0.0
 11
440.100025
 21
21.83173875
 31
0.0
  0
LINE
  5
181
330
A2
100
AcDbEntity
  8
AM_BOR
  6
Continuous
 62
   179
100
AcDbLine
 10
441.5805250373
 20
22.5719887562
 30
0.0
 11
442.0123375
 21
22.5719887562
 31
0.0
  0
LINE
  5
182
330
A2
100
AcDbEntity
  8
AM_BOR
  6
Continuous
 62
   179
100
AcDbLine
 10
443.4928375502
 20
21.8317387182
 30
0.0
 11
443.4928375502
 21
21.52330125
 31
0.0
  0
LINE
  5
183
330
A2
100
AcDbEntity
  8
AM_BOR
  6
Continuous
 62
   179
100
AcDbLine
 10
440.100025
 20
21.3630775
 30
0.0
 11
443.4928375
 21
21.3630775
 31
0.0
  0
LINE
  5
184
330
A2
100
AcDbEntity
  8
AM_BOR
  6
Continuous
 62
   179
100
AcDbLine
 10
443.4928375
 20
21.3630775
 30
0.0
 11
443.4928375
 21
21.1163275
 31
0.0
  0
LINE
  5
185
330
A2
100
AcDbEntity
  8
AM_BOR
  6
Continuous
 62
   179
100
AcDbLine
 10
443.4928375
 20
21.1163275
 30
0.0
 11
440.100025
 21
21.1163275
 31
0.0
  0
LINE
  5
186
330
A2
100
AcDbEntity
  8
AM_BOR
  6
Continuous
 62
   179
100
AcDbLine
 10
440.100025
 20
21.1163275
 30
0.0
 11
440.100025
 21
21.3630775
 31
0.0
  0
LINE
  5
187
330
A2
100
AcDbEntity
  8
AM_BOR
  6
Continuous
 62
   179
100
AcDbLine
 10
440.100025
 20
20.78305125
 30
0.0
 11
443.4928375
 21
20.78305125
 31
0.0
  0
LINE
  5
188
330
A2
100
AcDbEntity
  8
AM_BOR
  6
Continuous
 62
   179
100
AcDbLine
 10
443.4928375
 20
20.78305125
 30
0.0
 11
443.4928375
 21
20.53630125
 31
0.0
  0
LINE
  5
189
330
A2
100
AcDbEntity
  8
AM_BOR
  6
Continuous
 62
   179
100
AcDbLine
 10
443.4928375
 20
20.53630125
 30
0.0
 11
441.6422125
 21
20.53630125
 31
0.0
  0
LINE
  5
18A
330
A2
100
AcDbEntity
  8
AM_BOR
  6
Continuous
 62
   179
100
AcDbLine
 10
441.6422125
 20
20.53630125
 30
0.0
 11
441.2104
 21
19.85773875
 31
0.0
  0
LINE
  5
18B
330
A2
100
AcDbEntity
  8
AM_BOR
  6
Continuous
 62
   179
100
AcDbLine
 10
441.2104
 20
19.85773875
 30
0.0
 11
441.83238875
 21
19.85773875
 31
0.0
  0
LINE
  5
18C
330
A2
100
AcDbEntity
  8
AM_BOR
  6
Continuous
 62
   179
100
AcDbLine
 10
442.2590880695
 20
20.2895516405
 30
0.0
 11
442.8759625
 21
20.2895516405
 31
0.0
  0
LINE
  5
18D
330
A2
100
AcDbEntity
  8
AM_BOR
  6
Continuous
 62
   179
100
AcDbLine
 10
443.4928374027
 20
19.8577388998
 30
0.0
 11
443.4928374027
 21
19.54930125
 31
0.0
  0
LINE
  5
18E
330
A2
100
AcDbEntity
  8
AM_BOR
  6
Continuous
 62
   179
100
AcDbLine
 10
442.01735125
 20
19.54930125
 30
0.0
 11
440.100025
 21
19.54930125
 31
0.0
  0
LINE
  5
18F
330
A2
100
AcDbEntity
  8
AM_BOR
  6
Continuous
 62
   179
100
AcDbLine
 10
440.100025
 20
19.54930125
 30
0.0
 11
440.100025
 21
19.85773875
 31
0.0
  0
LINE
  5
190
330
A2
100
AcDbEntity
  8
AM_BOR
  6
Continuous
 62
   179
100
AcDbLine
 10
440.100025
 20
19.85773875
 30
0.0
 11
440.593525
 21
19.85773875
 31
0.0
  0
LINE
  5
191
330
A2
100
AcDbEntity
  8
AM_BOR
  6
Continuous
 62
   179
100
AcDbLine
 10
440.593525
 20
19.85773875
 30
0.0
 11
441.0253375
 21
20.53630125
 31
0.0
  0
LINE
  5
192
330
A2
100
AcDbEntity
  8
AM_BOR
  6
Continuous
 62
   179
100
AcDbLine
 10
441.0253375
 20
20.53630125
 30
0.0
 11
440.100025
 21
20.53630125
 31
0.0
  0
LINE
  5
193
330
A2
100
AcDbEntity
  8
AM_BOR
  6
Continuous
 62
   179
100
AcDbLine
 10
440.100025
 20
20.53630125
 30
0.0
 11
440.100025
 21
20.78305125
 31
0.0
  0
LINE
  5
194
330
A2
100
AcDbEntity
  8
AM_BOR
  6
Continuous
 62
   179
100
AcDbLine
 10
444.6032124762
 20
22.0784888523
 30
0.0
 11
443.7395875
 21
22.0784888523
 31
0.0
  0
LINE
  5
195
330
A2
100
AcDbEntity
  8
AM_BOR
  6
Continuous
 62
   179
100
AcDbLine
 10
443.7395875
 20
22.07848875
 30
0.0
 11
443.7395875
 21
22.32523875
 31
0.0
  0
LINE
  5
196
330
A2
100
AcDbEntity
  8
AM_BOR
  6
Continuous
 62
   179
100
AcDbLine
 10
443.7395875
 20
22.32523875
 30
0.0
 11
444.1097125
 21
22.32523875
 31
0.0
  0
LINE
  5
197
330
A2
100
AcDbEntity
  8
AM_BOR
  6
Continuous
 62
   179
100
AcDbLine
 10
444.1097125
 20
22.32523875
 30
0.0
 11
444.1097125
 21
22.57198875
 31
0.0
  0
LINE
  5
198
330
A2
100
AcDbEntity
  8
AM_BOR
  6
Continuous
 62
   179
100
AcDbLine
 10
444.1097125
 20
22.57198875
 30
0.0
 11
444.6032125
 21
22.57198875
 31
0.0
  0
LINE
  5
199
330
A2
100
AcDbEntity
  8
AM_BOR
  6
Continuous
 62
   179
100
AcDbLine
 10
444.6032125
 20
22.57198875
 30
0.0
 11
444.6032125
 21
22.32523875
 31
0.0
  0
LINE
  5
19A
330
A2
100
AcDbEntity
  8
AM_BOR
  6
Continuous
 62
   179
100
AcDbLine
 10
444.6032125
 20
22.32523875
 30
0.0
 11
445.281775
 21
22.32523875
 31
0.0
  0
LINE
  5
19B
330
A2
100
AcDbEntity
  8
AM_BOR
  6
Continuous
 62
   179
100
AcDbLine
 10
445.1584001843
 20
20.9064256604
 30
0.0
 11
445.1584001843
 21
20.53630125
 31
0.0
  0
LINE
  5
19C
330
A2
100
AcDbEntity
  8
AM_BOR
  6
Continuous
 62
   179
100
AcDbLine
 10
444.6032117352
 20
20.844738092
 30
0.0
 11
444.6032125
 21
19.54930125
 31
0.0
  0
LINE
  5
19D
330
A2
100
AcDbEntity
  8
AM_BOR
  6
Continuous
 62
   179
100
AcDbLine
 10
444.6032125
 20
19.54930125
 30
0.0
 11
444.1097125
 21
19.54930125
 31
0.0
  0
LINE
  5
19E
330
A2
100
AcDbEntity
  8
AM_BOR
  6
Continuous
 62
   179
100
AcDbLine
 10
444.1097125
 20
19.54930125
 30
0.0
 11
444.1097125
 21
20.69125375
 31
0.0
  0
LINE
  5
19F
330
A2
100
AcDbEntity
  8
AM_BOR
  6
Continuous
 62
   179
100
AcDbLine
 10
443.6779003067
 20
20.5363019176
 30
0.0
 11
443.6779003067
 21
20.8447391472
 31
0.0
  0
LINE
  5
1A0
330
A2
100
AcDbEntity
  8
AM_BOR
  6
Continuous
 62
   179
100
AcDbLine
 10
444.8499625
 20
19.85773875
 30
0.0
 11
445.775275
 21
19.85773875
 31
0.0
  0
LINE
  5
1A1
330
A2
100
AcDbEntity
  8
AM_BOR
  6
Continuous
 62
   179
100
AcDbLine
 10
445.775275
 20
19.85773875
 30
0.0
 11
445.775275
 21
22.07848875
 31
0.0
  0
LINE
  5
1A2
330
A2
100
AcDbEntity
  8
AM_BOR
  6
Continuous
 62
   179
100
AcDbLine
 10
445.775275
 20
22.07848875
 30
0.0
 11
445.40515
 21
22.07848875
 31
0.0
  0
LINE
  5
1A3
330
A2
100
AcDbEntity
  8
AM_BOR
  6
Continuous
 62
   179
100
AcDbLine
 10
445.40515
 20
22.07848875
 30
0.0
 11
445.40515
 21
22.32523875
 31
0.0
  0
LINE
  5
1A4
330
A2
100
AcDbEntity
  8
AM_BOR
  6
Continuous
 62
   179
100
AcDbLine
 10
445.40515
 20
22.32523875
 30
0.0
 11
445.775275
 21
22.32523875
 31
0.0
  0
LINE
  5
1A5
330
A2
100
AcDbEntity
  8
AM_BOR
  6
Continuous
 62
   179
100
AcDbLine
 10
445.775275
 20
22.32523875
 30
0.0
 11
445.775275
 21
22.57198875
 31
0.0
  0
LINE
  5
1A6
330
A2
100
AcDbEntity
  8
AM_BOR
  6
Continuous
 62
   179
100
AcDbLine
 10
445.775275
 20
22.57198875
 30
0.0
 11
446.39215
 21
22.57198875
 31
0.0
  0
LINE
  5
1A7
330
A2
100
AcDbEntity
  8
AM_BOR
  6
Continuous
 62
   179
100
AcDbLine
 10
446.39215
 20
22.57198875
 30
0.0
 11
446.39215
 21
22.32523875
 31
0.0
  0
LINE
  5
1A8
330
A2
100
AcDbEntity
  8
AM_BOR
  6
Continuous
 62
   179
100
AcDbLine
 10
446.39215
 20
22.32523875
 30
0.0
 11
447.009025
 21
22.32523875
 31
0.0
  0
LINE
  5
1A9
330
A2
100
AcDbEntity
  8
AM_BOR
  6
Continuous
 62
   179
100
AcDbLine
 10
447.009025
 20
22.32523875
 30
0.0
 11
447.009025
 21
22.07848875
 31
0.0
  0
LINE
  5
1AA
330
A2
100
AcDbEntity
  8
AM_BOR
  6
Continuous
 62
   179
100
AcDbLine
 10
447.009025
 20
22.07848875
 30
0.0
 11
446.39215
 21
22.07848875
 31
0.0
  0
LINE
  5
1AB
330
A2
100
AcDbEntity
  8
AM_BOR
  6
Continuous
 62
   179
100
AcDbLine
 10
446.39215
 20
22.07848875
 30
0.0
 11
446.39215
 21
19.85773875
 31
0.0
  0
LINE
  5
1AC
330
A2
100
AcDbEntity
  8
AM_BOR
  6
Continuous
 62
   179
100
AcDbLine
 10
446.39215
 20
19.85773875
 30
0.0
 11
447.0707125
 21
19.85773875
 31
0.0
  0
LINE
  5
1AD
330
A2
100
AcDbEntity
  8
AM_BOR
  6
Continuous
 62
   179
100
AcDbLine
 10
447.0707125
 20
19.85773875
 30
0.0
 11
447.0707125
 21
19.54930125
 31
0.0
  0
LINE
  5
1AE
330
A2
100
AcDbEntity
  8
AM_BOR
  6
Continuous
 62
   179
100
AcDbLine
 10
447.0707125
 20
19.54930125
 30
0.0
 11
444.8499625
 21
19.54930125
 31
0.0
  0
LINE
  5
1AF
330
A2
100
AcDbEntity
  8
AM_BOR
  6
Continuous
 62
   179
100
AcDbLine
 10
444.8499625
 20
19.54930125
 30
0.0
 11
444.8499625
 21
19.85773875
 31
0.0
  0
LINE
  5
1B0
330
A2
100
AcDbEntity
  8
AM_BOR
  6
Continuous
 62
   179
100
AcDbLine
 10
431.2787125
 20
21.77005125
 30
0.0
 11
431.2787125
 21
22.07848875
 31
0.0
  0
LINE
  5
1B1
330
A2
100
AcDbEntity
  8
AM_BOR
  6
Continuous
 62
   179
100
AcDbLine
 10
431.2787125
 20
22.07848875
 30
0.0
 11
430.2917125
 21
22.07848875
 31
0.0
  0
LINE
  5
1B2
330
A2
100
AcDbEntity
  8
AM_BOR
  6
Continuous
 62
   179
100
AcDbLine
 10
430.2917125
 20
22.07848875
 30
0.0
 11
430.2917125
 21
21.77005125
 31
0.0
  0
LINE
  5
1B3
330
A2
100
AcDbEntity
  8
AM_BOR
  6
Continuous
 62
   179
100
AcDbLine
 10
430.2917125
 20
21.77005125
 30
0.0
 11
431.2787125
 21
21.77005125
 31
0.0
  0
LINE
  5
1B4
330
A2
100
AcDbEntity
  8
AM_BOR
  6
Continuous
 62
   179
100
AcDbLine
 10
431.3404
 20
20.43181375
 30
0.0
 11
432.2599175
 21
20.43181375
 31
0.0
  0
LINE
  5
1B5
330
A2
100
AcDbEntity
  8
AM_BOR
  6
Continuous
 62
   179
100
AcDbLine
 10
430.8469
 20
20.43181375
 30
0.0
 11
429.8582825
 21
20.43181375
 31
0.0
  0
LINE
  5
1B6
330
A2
100
AcDbEntity
  8
AM_BOR
  6
Continuous
 62
   179
100
AcDbLine
 10
425.5455325
 20
19.54930125
 30
0.0
 11
425.237095
 21
19.85773875
 31
0.0
  0
LINE
  5
1B7
330
A2
100
AcDbEntity
  8
AM_BOR
  6
Continuous
 62
   179
100
AcDbLine
 10
425.919415
 20
19.54930125
 30
0.0
 11
425.6109775
 21
19.85773875
 31
0.0
  0
LINE
  5
1B8
330
A2
100
AcDbEntity
  8
AM_BOR
  6
Continuous
 62
   179
100
AcDbLine
 10
426.29329875
 20
19.54930125
 30
0.0
 11
425.98486125
 21
19.85773875
 31
0.0
  0
LINE
  5
1B9
330
A2
100
AcDbEntity
  8
AM_BOR
  6
Continuous
 62
   179
100
AcDbLine
 10
426.66718125
 20
19.54930125
 30
0.0
 11
426.35874375
 21
19.85773875
 31
0.0
  0
LINE
  5
1BA
330
A2
100
AcDbEntity
  8
AM_BOR
  6
Continuous
 62
   179
100
AcDbLine
 10
427.04106375
 20
19.54930125
 30
0.0
 11
426.5904625
 21
19.9999025
 31
0.0
  0
LINE
  5
1BB
330
A2
100
AcDbEntity
  8
AM_BOR
  6
Continuous
 62
   179
100
AcDbLine
 10
427.41494625
 20
19.54930125
 30
0.0
 11
426.5904625
 21
20.373785
 31
0.0
  0
LINE
  5
1BC
330
A2
100
AcDbEntity
  8
AM_BOR
  6
Continuous
 62
   179
100
AcDbLine
 10
427.78882875
 20
19.54930125
 30
0.0
 11
427.48039125
 21
19.85773875
 31
0.0
  0
LINE
  5
1BD
330
A2
100
AcDbEntity
  8
AM_BOR
  6
Continuous
 62
   179
100
AcDbLine
 10
427.2073375
 20
20.1307925
 30
0.0
 11
426.5904625
 21
20.7476675
 31
0.0
  0
LINE
  5
1BE
330
A2
100
AcDbEntity
  8
AM_BOR
  6
Continuous
 62
   179
100
AcDbLine
 10
428.16271125
 20
19.54930125
 30
0.0
 11
427.85427375
 21
19.85773875
 31
0.0
  0
LINE
  5
1BF
330
A2
100
AcDbEntity
  8
AM_BOR
  6
Continuous
 62
   179
100
AcDbLine
 10
427.2073375
 20
20.504675
 30
0.0
 11
426.5904625
 21
21.12155
 31
0.0
  0
LINE
  5
1C0
330
A2
100
AcDbEntity
  8
AM_BOR
  6
Continuous
 62
   179
100
AcDbLine
 10
425.69521125
 20
22.01680125
 30
0.0
 11
425.4184
 21
22.2936125
 31
0.0
  0
LINE
  5
1C1
330
A2
100
AcDbEntity
  8
AM_BOR
  6
Continuous
 62
   179
100
AcDbLine
 10
428.536595
 20
19.54930125
 30
0.0
 11
428.2281575
 21
19.85773875
 31
0.0
  0
LINE
  5
1C2
330
A2
100
AcDbEntity
  8
AM_BOR
  6
Continuous
 62
   179
100
AcDbLine
 10
427.2073375
 20
20.8785575
 30
0.0
 11
426.5904625
 21
21.4954325
 31
0.0
  0
LINE
  5
1C3
330
A2
100
AcDbEntity
  8
AM_BOR
  6
Continuous
 62
   179
100
AcDbLine
 10
426.069095
 20
22.01680125
 30
0.0
 11
425.7606575
 21
22.32523875
 31
0.0
  0
LINE
  5
1C4
330
A2
100
AcDbEntity
  8
AM_BOR
  6
Continuous
 62
   179
100
AcDbLine
 10
428.62615
 20
19.83362875
 30
0.0
 11
428.60204
 21
19.85773875
 31
0.0
  0
LINE
  5
1C5
330
A2
100
AcDbEntity
  8
AM_BOR
  6
Continuous
 62
   179
100
AcDbLine
 10
427.2073375
 20
21.25244125
 30
0.0
 11
426.5904625
 21
21.86931625
 31
0.0
  0
LINE
  5
1C6
330
A2
100
AcDbEntity
  8
AM_BOR
  6
Continuous
 62
   179
100
AcDbLine
 10
426.4429775
 20
22.01680125
 30
0.0
 11
426.13454
 21
22.32523875
 31
0.0
  0
LINE
  5
1C7
330
A2
100
AcDbEntity
  8
AM_BOR
  6
Continuous
 62
   179
100
AcDbLine
 10
427.2073375
 20
21.62632375
 30
0.0
 11
426.5084225
 21
22.32523875
 31
0.0
  0
LINE
  5
1C8
330
A2
100
AcDbEntity
  8
AM_BOR
  6
Continuous
 62
   179
100
AcDbLine
 10
427.2073375
 20
22.00020625
 30
0.0
 11
426.882305
 21
22.32523875
 31
0.0
  0
LINE
  5
1C9
330
A2
100
AcDbEntity
  8
AM_BOR
  6
Continuous
 62
   179
100
AcDbLine
 10
427.564625
 20
22.01680125
 30
0.0
 11
427.2561875
 21
22.32523875
 31
0.0
  0
LINE
  5
1CA
330
A2
100
AcDbEntity
  8
AM_BOR
  6
Continuous
 62
   179
100
AcDbLine
 10
427.9385075
 20
22.01680125
 30
0.0
 11
427.63007
 21
22.32523875
 31
0.0
  0
LINE
  5
1CB
330
A2
100
AcDbEntity
  8
AM_BOR
  6
Continuous
 62
   179
100
AcDbLine
 10
428.31239125
 20
22.01680125
 30
0.0
 11
428.00395375
 21
22.32523875
 31
0.0
  0
LINE
  5
1CC
330
A2
100
AcDbEntity
  8
AM_BOR
  6
Continuous
 62
   179
100
AcDbLine
 10
428.3794
 20
22.323675
 30
0.0
 11
428.37783625
 21
22.32523875
 31
0.0
  0
LINE
  5
1CD
330
A2
100
AcDbEntity
  8
AM_BOR
  6
Continuous
 62
   179
100
AcDbLine
 10
431.8339
 20
19.54930125
 30
0.0
 11
431.5254625
 21
19.85773875
 31
0.0
  0
LINE
  5
1CE
330
A2
100
AcDbEntity
  8
AM_BOR
  6
Continuous
 62
   179
100
AcDbLine
 10
431.3404
 20
20.04280125
 30
0.0
 11
430.8469
 21
20.53630125
 31
0.0
  0
LINE
  5
1CF
330
A2
100
AcDbEntity
  8
AM_BOR
  6
Continuous
 62
   179
100
AcDbLine
 10
430.60015
 20
20.78305125
 30
0.0
 11
430.3534
 21
21.02980125
 31
0.0
  0
LINE
  5
1D0
330
A2
100
AcDbEntity
  8
AM_BOR
  6
Continuous
 62
   179
100
AcDbLine
 10
429.9215875
 20
21.46161375
 30
0.0
 11
429.61315
 21
21.77005125
 31
0.0
  0
LINE
  5
1D1
330
A2
100
AcDbEntity
  8
AM_BOR
  6
Continuous
 62
   179
100
AcDbLine
 10
429.3047125
 20
22.07848875
 30
0.0
 11
429.0579625
 21
22.32523875
 31
0.0
  0
LINE
  5
1D2
330
A2
100
AcDbEntity
  8
AM_BOR
  6
Continuous
 62
   179
100
AcDbLine
 10
431.4600175
 20
19.54930125
 30
0.0
 11
430.8469
 21
20.16241875
 31
0.0
  0
LINE
  5
1D3
330
A2
100
AcDbEntity
  8
AM_BOR
  6
Continuous
 62
   179
100
AcDbLine
 10
430.824255
 20
20.18506375
 30
0.0
 11
430.577505
 21
20.43181375
 31
0.0
  0
LINE
  5
1D4
330
A2
100
AcDbEntity
  8
AM_BOR
  6
Continuous
 62
   179
100
AcDbLine
 10
430.2262675
 20
20.78305125
 30
0.0
 11
429.7327675
 21
21.27655125
 31
0.0
  0
LINE
  5
1D5
330
A2
100
AcDbEntity
  8
AM_BOR
  6
Continuous
 62
   179
100
AcDbLine
 10
429.547705
 20
21.46161375
 30
0.0
 11
429.2392675
 21
21.77005125
 31
0.0
  0
LINE
  5
1D6
330
A2
100
AcDbEntity
  8
AM_BOR
  6
Continuous
 62
   179
100
AcDbLine
 10
431.086135
 20
19.54930125
 30
0.0
 11
430.7776975
 21
19.85773875
 31
0.0
  0
LINE
  5
1D7
330
A2
100
AcDbEntity
  8
AM_BOR
  6
Continuous
 62
   179
100
AcDbLine
 10
430.4503725
 20
20.18506375
 30
0.0
 11
430.2036225
 21
20.43181375
 31
0.0
  0
LINE
  5
1D8
330
A2
100
AcDbEntity
  8
AM_BOR
  6
Continuous
 62
   179
100
AcDbLine
 10
429.852385
 20
20.78305125
 30
0.0
 11
429.6748375
 21
20.96059875
 31
0.0
  0
LINE
  5
1D9
330
A2
100
AcDbEntity
  8
AM_BOR
  6
Continuous
 62
   179
100
AcDbLine
 10
429.51085125
 20
21.124585
 30
0.0
 11
428.996275
 21
21.63916125
 31
0.0
  0
LINE
  5
1DA
330
A2
100
AcDbEntity
  8
AM_BOR
  6
Continuous
 62
   179
100
AcDbLine
 10
430.7122525
 20
19.54930125
 30
0.0
 11
430.403815
 21
19.85773875
 31
0.0
  0
LINE
  5
1DB
330
A2
100
AcDbEntity
  8
AM_BOR
  6
Continuous
 62
   179
100
AcDbLine
 10
430.07649
 20
20.18506375
 30
0.0
 11
429.8582825
 21
20.40327125
 31
0.0
  0
LINE
  5
1DC
330
A2
100
AcDbEntity
  8
AM_BOR
  6
Continuous
 62
   179
100
AcDbLine
 10
429.51085125
 20
20.75070125
 30
0.0
 11
428.996275
 21
21.2652775
 31
0.0
  0
LINE
  5
1DD
330
A2
100
AcDbEntity
  8
AM_BOR
  6
Continuous
 62
   179
100
AcDbLine
 10
430.33836875
 20
19.54930125
 30
0.0
 11
430.02993125
 21
19.85773875
 31
0.0
  0
LINE
  5
1DE
330
A2
100
AcDbEntity
  8
AM_BOR
  6
Continuous
 62
   179
100
AcDbLine
 10
429.51085125
 20
20.37681875
 30
0.0
 11
428.996275
 21
20.891395
 31
0.0
  0
LINE
  5
1DF
330
A2
100
AcDbEntity
  8
AM_BOR
  6
Continuous
 62
   179
100
AcDbLine
 10
429.96448625
 20
19.54930125
 30
0.0
 11
429.736525
 21
19.7772625
 31
0.0
  0
LINE
  5
1E0
330
A2
100
AcDbEntity
  8
AM_BOR
  6
Continuous
 62
   179
100
AcDbLine
 10
429.45654875
 20
20.05724
 30
0.0
 11
428.996275
 21
20.5175125
 31
0.0
  0
LINE
  5
1E1
330
A2
100
AcDbEntity
  8
AM_BOR
  6
Continuous
 62
   179
100
AcDbLine
 10
429.3180225
 20
19.8218825
 30
0.0
 11
428.9797925
 21
20.1601125
 31
0.0
  0
LINE
  5
1E2
330
A2
100
AcDbEntity
  8
AM_BOR
  6
Continuous
 62
   179
100
AcDbLine
 10
429.1170275
 20
19.64899375
 30
0.0
 11
428.87871875
 21
19.88730375
 31
0.0
  0
LINE
  5
1E3
330
A2
100
AcDbEntity
  8
AM_BOR
  6
Continuous
 62
   179
100
AcDbLine
 10
432.2077825
 20
19.54930125
 30
0.0
 11
431.899345
 21
19.85773875
 31
0.0
  0
LINE
  5
1E4
330
A2
100
AcDbEntity
  8
AM_BOR
  6
Continuous
 62
   179
100
AcDbLine
 10
431.57202
 20
20.18506375
 30
0.0
 11
430.7272825
 21
21.02980125
 31
0.0
  0
LINE
  5
1E5
330
A2
100
AcDbEntity
  8
AM_BOR
  6
Continuous
 62
   179
100
AcDbLine
 10
430.29547
 20
21.46161375
 30
0.0
 11
429.7982125
 21
21.95887125
 31
0.0
  0
LINE
  5
1E6
330
A2
100
AcDbEntity
  8
AM_BOR
  6
Continuous
 62
   179
100
AcDbLine
 10
429.678595
 20
22.07848875
 30
0.0
 11
429.431845
 21
22.32523875
 31
0.0
  0
LINE
  5
1E7
330
A2
100
AcDbEntity
  8
AM_BOR
  6
Continuous
 62
   179
100
AcDbLine
 10
432.450775
 20
19.68019125
 30
0.0
 11
432.2732275
 21
19.85773875
 31
0.0
  0
LINE
  5
1E8
330
A2
100
AcDbEntity
  8
AM_BOR
  6
Continuous
 62
   179
100
AcDbLine
 10
431.94590375
 20
20.18506375
 30
0.0
 11
431.69915375
 21
20.43181375
 31
0.0
  0
LINE
  5
1E9
330
A2
100
AcDbEntity
  8
AM_BOR
  6
Continuous
 62
   179
100
AcDbLine
 10
431.347915
 20
20.78305125
 30
0.0
 11
430.854415
 21
21.27655125
 31
0.0
  0
LINE
  5
1EA
330
A2
100
AcDbEntity
  8
AM_BOR
  6
Continuous
 62
   179
100
AcDbLine
 10
430.6693525
 20
21.46161375
 30
0.0
 11
430.360915
 21
21.77005125
 31
0.0
  0
LINE
  5
1EB
330
A2
100
AcDbEntity
  8
AM_BOR
  6
Continuous
 62
   179
100
AcDbLine
 10
432.2599175
 20
20.24493125
 30
0.0
 11
432.07303625
 21
20.43181375
 31
0.0
  0
LINE
  5
1EC
330
A2
100
AcDbEntity
  8
AM_BOR
  6
Continuous
 62
   179
100
AcDbLine
 10
431.72179875
 20
20.78305125
 30
0.0
 11
431.47504875
 21
21.02980125
 31
0.0
  0
LINE
  5
1ED
330
A2
100
AcDbEntity
  8
AM_BOR
  6
Continuous
 62
   179
100
AcDbLine
 10
431.3404
 20
21.16444875
 30
0.0
 11
431.22829875
 21
21.27655125
 31
0.0
  0
LINE
  5
1EE
330
A2
100
AcDbEntity
  8
AM_BOR
  6
Continuous
 62
   179
100
AcDbLine
 10
431.04323625
 20
21.46161375
 30
0.0
 11
430.73479875
 21
21.77005125
 31
0.0
  0
LINE
  5
1EF
330
A2
100
AcDbEntity
  8
AM_BOR
  6
Continuous
 62
   179
100
AcDbLine
 10
432.09568125
 20
20.78305125
 30
0.0
 11
431.84893125
 21
21.02980125
 31
0.0
  0
LINE
  5
1F0
330
A2
100
AcDbEntity
  8
AM_BOR
  6
Continuous
 62
   179
100
AcDbLine
 10
431.41711875
 20
21.46161375
 30
0.0
 11
431.10868125
 21
21.77005125
 31
0.0
  0
LINE
  5
1F1
330
A2
100
AcDbEntity
  8
AM_BOR
  6
Continuous
 62
   179
100
AcDbLine
 10
432.3890875
 20
20.8635275
 30
0.0
 11
432.22281375
 21
21.02980125
 31
0.0
  0
LINE
  5
1F2
330
A2
100
AcDbEntity
  8
AM_BOR
  6
Continuous
 62
   179
100
AcDbLine
 10
431.79100125
 20
21.46161375
 30
0.0
 11
431.2787125
 21
21.9739025
 31
0.0
  0
LINE
  5
1F3
330
A2
100
AcDbEntity
  8
AM_BOR
  6
Continuous
 62
   179
100
AcDbLine
 10
432.16488375
 20
21.46161375
 30
0.0
 11
431.85644625
 21
21.77005125
 31
0.0
  0
LINE
  5
1F4
330
A2
100
AcDbEntity
  8
AM_BOR
  6
Continuous
 62
   179
100
AcDbLine
 10
431.8339
 20
21.7925975
 30
0.0
 11
431.30125875
 21
22.32523875
 31
0.0
  0
LINE
  5
1F5
330
A2
100
AcDbEntity
  8
AM_BOR
  6
Continuous
 62
   179
100
AcDbLine
 10
431.09365
 20
22.5328475
 30
0.0
 11
431.05450875
 21
22.57198875
 31
0.0
  0
LINE
  5
1F6
330
A2
100
AcDbEntity
  8
AM_BOR
  6
Continuous
 62
   179
100
AcDbLine
 10
432.450775
 20
21.549605
 30
0.0
 11
432.23032875
 21
21.77005125
 31
0.0
  0
LINE
  5
1F7
330
A2
100
AcDbEntity
  8
AM_BOR
  6
Continuous
 62
   179
100
AcDbLine
 10
431.92189125
 20
22.07848875
 30
0.0
 11
431.67514125
 21
22.32523875
 31
0.0
  0
LINE
  5
1F8
330
A2
100
AcDbEntity
  8
AM_BOR
  6
Continuous
 62
   179
100
AcDbLine
 10
432.29577375
 20
22.07848875
 30
0.0
 11
432.04902375
 21
22.32523875
 31
0.0
  0
LINE
  5
1F9
330
A2
100
AcDbEntity
  8
AM_BOR
  6
Continuous
 62
   179
100
AcDbLine
 10
432.450775
 20
22.29737
 30
0.0
 11
432.4229075
 21
22.32523875
 31
0.0
  0
LINE
  5
1FA
330
A2
100
AcDbEntity
  8
AM_BOR
  6
Continuous
 62
   179
100
AcDbLine
 10
431.17412625
 20
22.07848875
 30
0.0
 11
430.68062625
 21
22.57198875
 31
0.0
  0
LINE
  5
1FB
330
A2
100
AcDbEntity
  8
AM_BOR
  6
Continuous
 62
   179
100
AcDbLine
 10
430.80024375
 20
22.07848875
 30
0.0
 11
430.476775
 21
22.4019575
 31
0.0
  0
LINE
  5
1FC
330
A2
100
AcDbEntity
  8
AM_BOR
  6
Continuous
 62
   179
100
AcDbLine
 10
430.42636125
 20
22.07848875
 30
0.0
 11
430.17961125
 21
22.32523875
 31
0.0
  0
LINE
  5
1FD
330
A2
100
AcDbEntity
  8
AM_BOR
  6
Continuous
 62
   179
100
AcDbLine
 10
430.2917125
 20
21.83925375
 30
0.0
 11
429.8057275
 21
22.32523875
 31
0.0
  0
LINE
  5
1FE
330
A2
100
AcDbEntity
  8
AM_BOR
  6
Continuous
 62
   179
100
AcDbLine
 10
435.8931825
 20
19.74645625
 30
0.0
 11
435.6515075
 21
19.98813125
 31
0.0
  0
LINE
  5
1FF
330
A2
100
AcDbEntity
  8
AM_BOR
  6
Continuous
 62
   179
100
AcDbLine
 10
435.3500875
 20
20.28955125
 30
0.0
 11
433.9028925
 21
21.73674625
 31
0.0
  0
LINE
  5
200
330
A2
100
AcDbEntity
  8
AM_BOR
  6
Continuous
 62
   179
100
AcDbLine
 10
433.6228375
 20
22.01680125
 30
0.0
 11
433.06765
 21
22.57198875
 31
0.0
  0
LINE
  5
201
330
A2
100
AcDbEntity
  8
AM_BOR
  6
Continuous
 62
   179
100
AcDbLine
 10
435.3500875
 20
19.91566875
 30
0.0
 11
434.7949
 21
20.47085625
 31
0.0
  0
LINE
  5
202
330
A2
100
AcDbEntity
  8
AM_BOR
  6
Continuous
 62
   179
100
AcDbLine
 10
434.76375625
 20
20.502
 30
0.0
 11
434.36288
 21
20.90287625
 31
0.0
  0
LINE
  5
203
330
A2
100
AcDbEntity
  8
AM_BOR
  6
Continuous
 62
   179
100
AcDbLine
 10
433.989205
 20
21.27655125
 30
0.0
 11
433.98483875
 21
21.2809175
 31
0.0
  0
LINE
  5
204
330
A2
100
AcDbEntity
  8
AM_BOR
  6
Continuous
 62
   179
100
AcDbLine
 10
433.8695875
 20
21.39616875
 30
0.0
 11
433.86450625
 21
21.40125
 31
0.0
  0
LINE
  5
205
330
A2
100
AcDbEntity
  8
AM_BOR
  6
Continuous
 62
   179
100
AcDbLine
 10
433.57503125
 20
21.690725
 30
0.0
 11
432.9405175
 21
22.32523875
 31
0.0
  0
LINE
  5
206
330
A2
100
AcDbEntity
  8
AM_BOR
  6
Continuous
 62
   179
100
AcDbLine
 10
435.3425725
 20
19.54930125
 30
0.0
 11
434.7949
 21
20.09697375
 31
0.0
  0
LINE
  5
207
330
A2
100
AcDbEntity
  8
AM_BOR
  6
Continuous
 62
   179
100
AcDbLine
 10
434.65535
 20
20.23652375
 30
0.0
 11
434.32421375
 21
20.56766
 31
0.0
  0
LINE
  5
208
330
A2
100
AcDbEntity
  8
AM_BOR
  6
Continuous
 62
   179
100
AcDbLine
 10
433.76118625
 20
21.1306875
 30
0.0
 11
433.06765
 21
21.82422375
 31
0.0
  0
LINE
  5
209
330
A2
100
AcDbEntity
  8
AM_BOR
  6
Continuous
 62
   179
100
AcDbLine
 10
432.8750725
 20
22.01680125
 30
0.0
 11
432.697525
 21
22.19434875
 31
0.0
  0
LINE
  5
20A
330
A2
100
AcDbEntity
  8
AM_BOR
  6
Continuous
 62
   179
100
AcDbLine
 10
434.96869
 20
19.54930125
 30
0.0
 11
434.7949
 21
19.72309
 31
0.0
  0
LINE
  5
20B
330
A2
100
AcDbEntity
  8
AM_BOR
  6
Continuous
 62
   179
100
AcDbLine
 10
434.50948125
 20
20.00851
 30
0.0
 11
434.23545125
 21
20.28253875
 31
0.0
  0
LINE
  5
20C
330
A2
100
AcDbEntity
  8
AM_BOR
  6
Continuous
 62
   179
100
AcDbLine
 10
433.56115
 20
20.95684
 30
0.0
 11
433.06765
 21
21.45034
 31
0.0
  0
LINE
  5
20D
330
A2
100
AcDbEntity
  8
AM_BOR
  6
Continuous
 62
   179
100
AcDbLine
 10
434.330405
 20
19.8137025
 30
0.0
 11
434.10924875
 21
20.03485875
 31
0.0
  0
LINE
  5
20E
330
A2
100
AcDbEntity
  8
AM_BOR
  6
Continuous
 62
   179
100
AcDbLine
 10
433.56115
 20
20.5829575
 30
0.0
 11
433.04474875
 21
21.09935875
 31
0.0
  0
LINE
  5
20F
330
A2
100
AcDbEntity
  8
AM_BOR
  6
Continuous
 62
   179
100
AcDbLine
 10
434.11886125
 20
19.65136375
 30
0.0
 11
433.9513
 21
19.818925
 31
0.0
  0
LINE
  5
210
330
A2
100
AcDbEntity
  8
AM_BOR
  6
Continuous
 62
   179
100
AcDbLine
 10
433.56115
 20
20.209075
 30
0.0
 11
432.92682125
 21
20.843405
 31
0.0
  0
LINE
  5
211
330
A2
100
AcDbEntity
  8
AM_BOR
  6
Continuous
 62
   179
100
AcDbLine
 10
433.56115
 20
19.8351925
 30
0.0
 11
433.06765
 21
20.3286925
 31
0.0
  0
LINE
  5
212
330
A2
100
AcDbEntity
  8
AM_BOR
  6
Continuous
 62
   179
100
AcDbLine
 10
433.04947
 20
20.3468725
 30
0.0
 11
432.7386325
 21
20.65771
 31
0.0
  0
LINE
  5
213
330
A2
100
AcDbEntity
  8
AM_BOR
  6
Continuous
 62
   179
100
AcDbLine
 10
433.47315875
 20
19.54930125
 30
0.0
 11
433.06765
 21
19.95481
 31
0.0
  0
LINE
  5
214
330
A2
100
AcDbEntity
  8
AM_BOR
  6
Continuous
 62
   179
100
AcDbLine
 10
432.83304375
 20
20.18941625
 30
0.0
 11
432.6358375
 21
20.3866225
 31
0.0
  0
LINE
  5
215
330
A2
100
AcDbEntity
  8
AM_BOR
  6
Continuous
 62
   179
100
AcDbLine
 10
433.09927625
 20
19.54930125
 30
0.0
 11
433.06765
 21
19.5809275
 31
0.0
  0
LINE
  5
216
330
A2
100
AcDbEntity
  8
AM_BOR
  6
Continuous
 62
   179
100
AcDbLine
 10
436.18831
 20
19.8252125
 30
0.0
 11
434.49022
 21
21.52330125
 31
0.0
  0
LINE
  5
217
330
A2
100
AcDbEntity
  8
AM_BOR
  6
Continuous
 62
   179
100
AcDbLine
 10
433.931275
 20
22.08224625
 30
0.0
 11
433.6882825
 21
22.32523875
 31
0.0
  0
LINE
  5
218
330
A2
100
AcDbEntity
  8
AM_BOR
  6
Continuous
 62
   179
100
AcDbLine
 10
433.56115
 20
22.45237125
 30
0.0
 11
433.4415325
 21
22.57198875
 31
0.0
  0
LINE
  5
219
330
A2
100
AcDbEntity
  8
AM_BOR
  6
Continuous
 62
   179
100
AcDbLine
 10
435.82106
 20
20.56634375
 30
0.0
 11
434.7949
 21
21.59250375
 31
0.0
  0
LINE
  5
21A
330
A2
100
AcDbEntity
  8
AM_BOR
  6
Continuous
 62
   179
100
AcDbLine
 10
435.7819
 20
20.97938625
 30
0.0
 11
434.7949
 21
21.96638625
 31
0.0
  0
LINE
  5
21B
330
A2
100
AcDbEntity
  8
AM_BOR
  6
Continuous
 62
   179
100
AcDbLine
 10
435.85861875
 20
21.27655125
 30
0.0
 11
435.61186875
 21
21.52330125
 31
0.0
  0
LINE
  5
21C
330
A2
100
AcDbEntity
  8
AM_BOR
  6
Continuous
 62
   179
100
AcDbLine
 10
435.3500875
 20
21.7850825
 30
0.0
 11
434.7949
 21
22.34027
 31
0.0
  0
LINE
  5
21D
330
A2
100
AcDbEntity
  8
AM_BOR
  6
Continuous
 62
   179
100
AcDbLine
 10
434.6098375
 20
22.5253325
 30
0.0
 11
434.56318125
 21
22.57198875
 31
0.0
  0
LINE
  5
21E
330
A2
100
AcDbEntity
  8
AM_BOR
  6
Continuous
 62
   179
100
AcDbLine
 10
436.2137125
 20
21.29534
 30
0.0
 11
435.98575125
 21
21.52330125
 31
0.0
  0
LINE
  5
21F
330
A2
100
AcDbEntity
  8
AM_BOR
  6
Continuous
 62
   179
100
AcDbLine
 10
435.43056375
 20
22.07848875
 30
0.0
 11
434.93706375
 21
22.57198875
 31
0.0
  0
LINE
  5
220
330
A2
100
AcDbEntity
  8
AM_BOR
  6
Continuous
 62
   179
100
AcDbLine
 10
435.80444625
 20
22.07848875
 30
0.0
 11
435.55769625
 21
22.32523875
 31
0.0
  0
LINE
  5
221
330
A2
100
AcDbEntity
  8
AM_BOR
  6
Continuous
 62
   179
100
AcDbLine
 10
435.3500875
 20
22.5328475
 30
0.0
 11
435.31094625
 21
22.57198875
 31
0.0
  0
LINE
  5
222
330
A2
100
AcDbEntity
  8
AM_BOR
  6
Continuous
 62
   179
100
AcDbLine
 10
436.0903375
 20
22.16648
 30
0.0
 11
435.93157875
 21
22.32523875
 31
0.0
  0
LINE
  5
223
330
A2
100
AcDbEntity
  8
AM_BOR
  6
Continuous
 62
   179
100
AcDbLine
 10
434.68279875
 20
22.07848875
 30
0.0
 11
434.18929875
 21
22.57198875
 31
0.0
  0
LINE
  5
224
330
A2
100
AcDbEntity
  8
AM_BOR
  6
Continuous
 62
   179
100
AcDbLine
 10
434.54707
 20
21.84033375
 30
0.0
 11
434.11475375
 21
22.27265125
 31
0.0
  0
LINE
  5
225
330
A2
100
AcDbEntity
  8
AM_BOR
  6
Continuous
 62
   179
100
AcDbLine
 10
434.37730875
 20
21.6362125
 30
0.0
 11
434.044245
 21
21.96927625
 31
0.0
  0
LINE
  5
226
330
A2
100
AcDbEntity
  8
AM_BOR
  6
Continuous
 62
   179
100
AcDbLine
 10
437.6942125
 20
21.09148875
 30
0.0
 11
437.2624
 21
21.52330125
 31
0.0
  0
LINE
  5
227
330
A2
100
AcDbEntity
  8
AM_BOR
  6
Continuous
 62
   179
100
AcDbLine
 10
436.7072125
 20
22.07848875
 30
0.0
 11
436.4604625
 21
22.32523875
 31
0.0
  0
LINE
  5
228
330
A2
100
AcDbEntity
  8
AM_BOR
  6
Continuous
 62
   179
100
AcDbLine
 10
438.7429
 20
19.66891875
 30
0.0
 11
438.55408
 21
19.85773875
 31
0.0
  0
LINE
  5
229
330
A2
100
AcDbEntity
  8
AM_BOR
  6
Continuous
 62
   179
100
AcDbLine
 10
437.6942125
 20
20.71760625
 30
0.0
 11
436.8885175
 21
21.52330125
 31
0.0
  0
LINE
  5
22A
330
A2
100
AcDbEntity
  8
AM_BOR
  6
Continuous
 62
   179
100
AcDbLine
 10
438.488635
 20
19.54930125
 30
0.0
 11
438.1801975
 21
19.85773875
 31
0.0
  0
LINE
  5
22B
330
A2
100
AcDbEntity
  8
AM_BOR
  6
Continuous
 62
   179
100
AcDbLine
 10
437.6942125
 20
20.34372375
 30
0.0
 11
437.139025
 21
20.89891125
 31
0.0
  0
LINE
  5
22C
330
A2
100
AcDbEntity
  8
AM_BOR
  6
Continuous
 62
   179
100
AcDbLine
 10
436.8230725
 20
21.21486375
 30
0.0
 11
436.514635
 21
21.52330125
 31
0.0
  0
LINE
  5
22D
330
A2
100
AcDbEntity
  8
AM_BOR
  6
Continuous
 62
   179
100
AcDbLine
 10
438.1147525
 20
19.54930125
 30
0.0
 11
437.806315
 21
19.85773875
 31
0.0
  0
LINE
  5
22E
330
A2
100
AcDbEntity
  8
AM_BOR
  6
Continuous
 62
   179
100
AcDbLine
 10
437.6942125
 20
19.96984
 30
0.0
 11
437.139025
 21
20.5250275
 31
0.0
  0
LINE
  5
22F
330
A2
100
AcDbEntity
  8
AM_BOR
  6
Continuous
 62
   179
100
AcDbLine
 10
436.44919
 20
21.21486375
 30
0.0
 11
436.398775
 21
21.2652775
 31
0.0
  0
LINE
  5
230
330
A2
100
AcDbEntity
  8
AM_BOR
  6
Continuous
 62
   179
100
AcDbLine
 10
437.74086875
 20
19.54930125
 30
0.0
 11
437.139025
 21
20.151145
 31
0.0
  0
LINE
  5
231
330
A2
100
AcDbEntity
  8
AM_BOR
  6
Continuous
 62
   179
100
AcDbLine
 10
437.36698625
 20
19.54930125
 30
0.0
 11
437.05854875
 21
19.85773875
 31
0.0
  0
LINE
  5
232
330
A2
100
AcDbEntity
  8
AM_BOR
  6
Continuous
 62
   179
100
AcDbLine
 10
436.99310375
 20
19.54930125
 30
0.0
 11
436.68466625
 21
19.85773875
 31
0.0
  0
LINE
  5
233
330
A2
100
AcDbEntity
  8
AM_BOR
  6
Continuous
 62
   179
100
AcDbLine
 10
436.61922125
 20
19.54930125
 30
0.0
 11
436.4604625
 21
19.70806
 31
0.0
  0
LINE
  5
234
330
A2
100
AcDbEntity
  8
AM_BOR
  6
Continuous
 62
   179
100
AcDbLine
 10
439.5397425
 20
19.6198425
 30
0.0
 11
438.47825125
 21
20.6813325
 31
0.0
  0
LINE
  5
235
330
A2
100
AcDbEntity
  8
AM_BOR
  6
Continuous
 62
   179
100
AcDbLine
 10
437.94472
 20
21.21486375
 30
0.0
 11
437.6362825
 21
21.52330125
 31
0.0
  0
LINE
  5
236
330
A2
100
AcDbEntity
  8
AM_BOR
  6
Continuous
 62
   179
100
AcDbLine
 10
437.081095
 20
22.07848875
 30
0.0
 11
436.834345
 21
22.32523875
 31
0.0
  0
LINE
  5
237
330
A2
100
AcDbEntity
  8
AM_BOR
  6
Continuous
 62
   179
100
AcDbLine
 10
439.7915875
 20
19.74187875
 30
0.0
 11
438.37732875
 21
21.15613875
 31
0.0
  0
LINE
  5
238
330
A2
100
AcDbEntity
  8
AM_BOR
  6
Continuous
 62
   179
100
AcDbLine
 10
438.3186025
 20
21.21486375
 30
0.0
 11
438.010165
 21
21.52330125
 31
0.0
  0
LINE
  5
239
330
A2
100
AcDbEntity
  8
AM_BOR
  6
Continuous
 62
   179
100
AcDbLine
 10
437.4549775
 20
22.07848875
 30
0.0
 11
437.2082275
 21
22.32523875
 31
0.0
  0
LINE
  5
23A
330
A2
100
AcDbEntity
  8
AM_BOR
  6
Continuous
 62
   179
100
AcDbLine
 10
439.048315
 20
20.859035
 30
0.0
 11
438.372775
 21
21.53457375
 31
0.0
  0
LINE
  5
23B
330
A2
100
AcDbEntity
  8
AM_BOR
  6
Continuous
 62
   179
100
AcDbLine
 10
437.82886125
 20
22.07848875
 30
0.0
 11
437.58211125
 21
22.32523875
 31
0.0
  0
LINE
  5
23C
330
A2
100
AcDbEntity
  8
AM_BOR
  6
Continuous
 62
   179
100
AcDbLine
 10
438.9896825
 20
21.29155
 30
0.0
 11
438.372775
 21
21.9084575
 31
0.0
  0
LINE
  5
23D
330
A2
100
AcDbEntity
  8
AM_BOR
  6
Continuous
 62
   179
100
AcDbLine
 10
438.20274375
 20
22.07848875
 30
0.0
 11
437.95599375
 21
22.32523875
 31
0.0
  0
LINE
  5
23E
330
A2
100
AcDbEntity
  8
AM_BOR
  6
Continuous
 62
   179
100
AcDbLine
 10
438.98965
 20
21.665465
 30
0.0
 11
438.32987625
 21
22.32523875
 31
0.0
  0
LINE
  5
23F
330
A2
100
AcDbEntity
  8
AM_BOR
  6
Continuous
 62
   179
100
AcDbLine
 10
438.98965
 20
22.0393475
 30
0.0
 11
438.45700875
 21
22.57198875
 31
0.0
  0
LINE
  5
240
330
A2
100
AcDbEntity
  8
AM_BOR
  6
Continuous
 62
   179
100
AcDbLine
 10
439.32439125
 20
22.07848875
 30
0.0
 11
439.07764125
 21
22.32523875
 31
0.0
  0
LINE
  5
241
330
A2
100
AcDbEntity
  8
AM_BOR
  6
Continuous
 62
   179
100
AcDbLine
 10
438.98965
 20
22.41323
 30
0.0
 11
438.83089125
 21
22.57198875
 31
0.0
  0
LINE
  5
242
330
A2
100
AcDbEntity
  8
AM_BOR
  6
Continuous
 62
   179
100
AcDbLine
 10
439.69827375
 20
22.07848875
 30
0.0
 11
439.43117875
 21
22.345585
 31
0.0
  0
LINE
  5
243
330
A2
100
AcDbEntity
  8
AM_BOR
  6
Continuous
 62
   179
100
AcDbLine
 10
439.853275
 20
22.29737
 30
0.0
 11
439.5786575
 21
22.57198875
 31
0.0
  0
LINE
  5
244
330
A2
100
AcDbEntity
  8
AM_BOR
  6
Continuous
 62
   179
100
AcDbLine
 10
442.30001625
 20
19.6317475
 30
0.0
 11
442.042005
 21
19.88975875
 31
0.0
  0
LINE
  5
245
330
A2
100
AcDbEntity
  8
AM_BOR
  6
Continuous
 62
   179
100
AcDbLine
 10
441.54625375
 20
20.38551
 30
0.0
 11
441.1487125
 21
20.78305125
 31
0.0
  0
LINE
  5
246
330
A2
100
AcDbEntity
  8
AM_BOR
  6
Continuous
 62
   179
100
AcDbLine
 10
440.81543625
 20
21.1163275
 30
0.0
 11
440.56868625
 21
21.3630775
 31
0.0
  0
LINE
  5
247
330
A2
100
AcDbEntity
  8
AM_BOR
  6
Continuous
 62
   179
100
AcDbLine
 10
440.35469125
 20
21.5770725
 30
0.0
 11
440.100025
 21
21.83173875
 31
0.0
  0
LINE
  5
248
330
A2
100
AcDbEntity
  8
AM_BOR
  6
Continuous
 62
   179
100
AcDbLine
 10
442.008515
 20
19.54936625
 30
0.0
 11
441.7001425
 21
19.85773875
 31
0.0
  0
LINE
  5
249
330
A2
100
AcDbEntity
  8
AM_BOR
  6
Continuous
 62
   179
100
AcDbLine
 10
441.400855
 20
20.15702625
 30
0.0
 11
441.02387625
 21
20.534005
 31
0.0
  0
LINE
  5
24A
330
A2
100
AcDbEntity
  8
AM_BOR
  6
Continuous
 62
   179
100
AcDbLine
 10
441.02158
 20
20.53630125
 30
0.0
 11
440.77483
 21
20.78305125
 31
0.0
  0
LINE
  5
24B
330
A2
100
AcDbEntity
  8
AM_BOR
  6
Continuous
 62
   179
100
AcDbLine
 10
440.44155375
 20
21.1163275
 30
0.0
 11
440.19480375
 21
21.3630775
 31
0.0
  0
LINE
  5
24C
330
A2
100
AcDbEntity
  8
AM_BOR
  6
Continuous
 62
   179
100
AcDbLine
 10
441.6346975
 20
19.54930125
 30
0.0
 11
441.32626
 21
19.85773875
 31
0.0
  0
LINE
  5
24D
330
A2
100
AcDbEntity
  8
AM_BOR
  6
Continuous
 62
   179
100
AcDbLine
 10
441.25545625
 20
19.92854125
 30
0.0
 11
440.8784775
 21
20.30552125
 31
0.0
  0
LINE
  5
24E
330
A2
100
AcDbEntity
  8
AM_BOR
  6
Continuous
 62
   179
100
AcDbLine
 10
440.6476975
 20
20.53630125
 30
0.0
 11
440.4009475
 21
20.78305125
 31
0.0
  0
LINE
  5
24F
330
A2
100
AcDbEntity
  8
AM_BOR
  6
Continuous
 62
   179
100
AcDbLine
 10
441.260815
 20
19.54930125
 30
0.0
 11
440.73307875
 21
20.0770375
 31
0.0
  0
LINE
  5
250
330
A2
100
AcDbEntity
  8
AM_BOR
  6
Continuous
 62
   179
100
AcDbLine
 10
440.273815
 20
20.53630125
 30
0.0
 11
440.100025
 21
20.71009
 31
0.0
  0
LINE
  5
251
330
A2
100
AcDbEntity
  8
AM_BOR
  6
Continuous
 62
   179
100
AcDbLine
 10
440.88693125
 20
19.54930125
 30
0.0
 11
440.57849375
 21
19.85773875
 31
0.0
  0
LINE
  5
252
330
A2
100
AcDbEntity
  8
AM_BOR
  6
Continuous
 62
   179
100
AcDbLine
 10
440.51304875
 20
19.54930125
 30
0.0
 11
440.20461125
 21
19.85773875
 31
0.0
  0
LINE
  5
253
330
A2
100
AcDbEntity
  8
AM_BOR
  6
Continuous
 62
   179
100
AcDbLine
 10
440.13916625
 20
19.54930125
 30
0.0
 11
440.100025
 21
19.5884425
 31
0.0
  0
LINE
  5
254
330
A2
100
AcDbEntity
  8
AM_BOR
  6
Continuous
 62
   179
100
AcDbLine
 10
442.49117
 20
19.81447625
 30
0.0
 11
442.28425375
 21
20.0213925
 31
0.0
  0
LINE
  5
255
330
A2
100
AcDbEntity
  8
AM_BOR
  6
Continuous
 62
   179
100
AcDbLine
 10
441.769345
 20
20.53630125
 30
0.0
 11
441.522595
 21
20.78305125
 31
0.0
  0
LINE
  5
256
330
A2
100
AcDbEntity
  8
AM_BOR
  6
Continuous
 62
   179
100
AcDbLine
 10
441.18931875
 20
21.1163275
 30
0.0
 11
440.94256875
 21
21.3630775
 31
0.0
  0
LINE
  5
257
330
A2
100
AcDbEntity
  8
AM_BOR
  6
Continuous
 62
   179
100
AcDbLine
 10
440.65597875
 20
21.6496675
 30
0.0
 11
440.38943125
 21
21.916215
 31
0.0
  0
LINE
  5
258
330
A2
100
AcDbEntity
  8
AM_BOR
  6
Continuous
 62
   179
100
AcDbLine
 10
443.05391875
 20
19.62561
 30
0.0
 11
442.3899775
 21
20.28955125
 31
0.0
  0
LINE
  5
259
330
A2
100
AcDbEntity
  8
AM_BOR
  6
Continuous
 62
   179
100
AcDbLine
 10
442.1432275
 20
20.53630125
 30
0.0
 11
441.8964775
 21
20.78305125
 31
0.0
  0
LINE
  5
25A
330
A2
100
AcDbEntity
  8
AM_BOR
  6
Continuous
 62
   179
100
AcDbLine
 10
441.56320125
 20
21.1163275
 30
0.0
 11
441.31645125
 21
21.3630775
 31
0.0
  0
LINE
  5
25B
330
A2
100
AcDbEntity
  8
AM_BOR
  6
Continuous
 62
   179
100
AcDbLine
 10
440.949565
 20
21.729965
 30
0.0
 11
440.66067375
 21
22.01885625
 31
0.0
  0
LINE
  5
25C
330
A2
100
AcDbEntity
  8
AM_BOR
  6
Continuous
 62
   179
100
AcDbLine
 10
443.4928375
 20
19.56057375
 30
0.0
 11
442.76386125
 21
20.28955125
 31
0.0
  0
LINE
  5
25D
330
A2
100
AcDbEntity
  8
AM_BOR
  6
Continuous
 62
   179
100
AcDbLine
 10
442.51711125
 20
20.53630125
 30
0.0
 11
442.27036125
 21
20.78305125
 31
0.0
  0
LINE
  5
25E
330
A2
100
AcDbEntity
  8
AM_BOR
  6
Continuous
 62
   179
100
AcDbLine
 10
441.937085
 20
21.1163275
 30
0.0
 11
441.690335
 21
21.3630775
 31
0.0
  0
LINE
  5
25F
330
A2
100
AcDbEntity
  8
AM_BOR
  6
Continuous
 62
   179
100
AcDbLine
 10
441.235835
 20
21.81757625
 30
0.0
 11
440.91554625
 21
22.137865
 31
0.0
  0
LINE
  5
260
330
A2
100
AcDbEntity
  8
AM_BOR
  6
Continuous
 62
   179
100
AcDbLine
 10
442.89099375
 20
20.53630125
 30
0.0
 11
442.64424375
 21
20.78305125
 31
0.0
  0
LINE
  5
261
330
A2
100
AcDbEntity
  8
AM_BOR
  6
Continuous
 62
   179
100
AcDbLine
 10
442.3109675
 20
21.1163275
 30
0.0
 11
442.0642175
 21
21.3630775
 31
0.0
  0
LINE
  5
262
330
A2
100
AcDbEntity
  8
AM_BOR
  6
Continuous
 62
   179
100
AcDbLine
 10
441.51513125
 20
21.91216375
 30
0.0
 11
441.1553275
 21
22.27196625
 31
0.0
  0
LINE
  5
263
330
A2
100
AcDbEntity
  8
AM_BOR
  6
Continuous
 62
   179
100
AcDbLine
 10
443.26487625
 20
20.53630125
 30
0.0
 11
443.01812625
 21
20.78305125
 31
0.0
  0
LINE
  5
264
330
A2
100
AcDbEntity
  8
AM_BOR
  6
Continuous
 62
   179
100
AcDbLine
 10
442.68485
 20
21.1163275
 30
0.0
 11
442.4381
 21
21.3630775
 31
0.0
  0
LINE
  5
265
330
A2
100
AcDbEntity
  8
AM_BOR
  6
Continuous
 62
   179
100
AcDbLine
 10
441.78774875
 20
22.0134275
 30
0.0
 11
441.38091875
 21
22.42025875
 31
0.0
  0
LINE
  5
266
330
A2
100
AcDbEntity
  8
AM_BOR
  6
Continuous
 62
   179
100
AcDbLine
 10
443.4928375
 20
20.6822225
 30
0.0
 11
443.39200875
 21
20.78305125
 31
0.0
  0
LINE
  5
267
330
A2
100
AcDbEntity
  8
AM_BOR
  6
Continuous
 62
   179
100
AcDbLine
 10
443.0587325
 20
21.1163275
 30
0.0
 11
442.8119825
 21
21.3630775
 31
0.0
  0
LINE
  5
268
330
A2
100
AcDbEntity
  8
AM_BOR
  6
Continuous
 62
   179
100
AcDbLine
 10
442.3577
 20
21.81736
 30
0.0
 11
441.60307125
 21
22.57198875
 31
0.0
  0
LINE
  5
269
330
A2
100
AcDbEntity
  8
AM_BOR
  6
Continuous
 62
   179
100
AcDbLine
 10
443.432615
 20
21.1163275
 30
0.0
 11
443.185865
 21
21.3630775
 31
0.0
  0
LINE
  5
26A
330
A2
100
AcDbEntity
  8
AM_BOR
  6
Continuous
 62
   179
100
AcDbLine
 10
442.88605625
 20
21.6628875
 30
0.0
 11
441.97695375
 21
22.57198875
 31
0.0
  0
LINE
  5
26B
330
A2
100
AcDbEntity
  8
AM_BOR
  6
Continuous
 62
   179
100
AcDbLine
 10
443.37563125
 20
21.54719375
 30
0.0
 11
442.88259125
 21
22.04023375
 31
0.0
  0
LINE
  5
26C
330
A2
100
AcDbEntity
  8
AM_BOR
  6
Continuous
 62
   179
100
AcDbLine
 10
443.4928375
 20
21.80387
 30
0.0
 11
443.4554425
 21
21.841265
 31
0.0
  0
LINE
  5
26D
330
A2
100
AcDbEntity
  8
AM_BOR
  6
Continuous
 62
   179
100
AcDbLine
 10
447.0707125
 20
19.61098875
 30
0.0
 11
446.8239625
 21
19.85773875
 31
0.0
  0
LINE
  5
26E
330
A2
100
AcDbEntity
  8
AM_BOR
  6
Continuous
 62
   179
100
AcDbLine
 10
446.39215
 20
20.28955125
 30
0.0
 11
445.775275
 21
20.90642625
 31
0.0
  0
LINE
  5
26F
330
A2
100
AcDbEntity
  8
AM_BOR
  6
Continuous
 62
   179
100
AcDbLine
 10
445.0617325
 20
21.61996875
 30
0.0
 11
444.1097125
 21
22.57198875
 31
0.0
  0
LINE
  5
270
330
A2
100
AcDbEntity
  8
AM_BOR
  6
Continuous
 62
   179
100
AcDbLine
 10
446.7585175
 20
19.54930125
 30
0.0
 11
446.45008
 21
19.85773875
 31
0.0
  0
LINE
  5
271
330
A2
100
AcDbEntity
  8
AM_BOR
  6
Continuous
 62
   179
100
AcDbLine
 10
446.39215
 20
19.91566875
 30
0.0
 11
445.775275
 21
20.53254375
 31
0.0
  0
LINE
  5
272
330
A2
100
AcDbEntity
  8
AM_BOR
  6
Continuous
 62
   179
100
AcDbLine
 10
444.9211325
 20
21.38668625
 30
0.0
 11
444.5373975
 21
21.77042125
 31
0.0
  0
LINE
  5
273
330
A2
100
AcDbEntity
  8
AM_BOR
  6
Continuous
 62
   179
100
AcDbLine
 10
444.22933
 20
22.07848875
 30
0.0
 11
443.98258
 21
22.32523875
 31
0.0
  0
LINE
  5
274
330
A2
100
AcDbEntity
  8
AM_BOR
  6
Continuous
 62
   179
100
AcDbLine
 10
446.384635
 20
19.54930125
 30
0.0
 11
445.775275
 21
20.15866125
 31
0.0
  0
LINE
  5
275
330
A2
100
AcDbEntity
  8
AM_BOR
  6
Continuous
 62
   179
100
AcDbLine
 10
445.1584
 20
20.77553625
 30
0.0
 11
444.4241575
 21
21.5097775
 31
0.0
  0
LINE
  5
276
330
A2
100
AcDbEntity
  8
AM_BOR
  6
Continuous
 62
   179
100
AcDbLine
 10
443.8554475
 20
22.07848875
 30
0.0
 11
443.7395875
 21
22.19434875
 31
0.0
  0
LINE
  5
277
330
A2
100
AcDbEntity
  8
AM_BOR
  6
Continuous
 62
   179
100
AcDbLine
 10
446.0107525
 20
19.54930125
 30
0.0
 11
445.702315
 21
19.85773875
 31
0.0
  0
LINE
  5
278
330
A2
100
AcDbEntity
  8
AM_BOR
  6
Continuous
 62
   179
100
AcDbLine
 10
444.98720875
 20
20.572845
 30
0.0
 11
444.273445
 21
21.28660875
 31
0.0
  0
LINE
  5
279
330
A2
100
AcDbEntity
  8
AM_BOR
  6
Continuous
 62
   179
100
AcDbLine
 10
445.63686875
 20
19.54930125
 30
0.0
 11
445.32843125
 21
19.85773875
 31
0.0
  0
LINE
  5
27A
330
A2
100
AcDbEntity
  8
AM_BOR
  6
Continuous
 62
   179
100
AcDbLine
 10
444.6032125
 20
20.5829575
 30
0.0
 11
444.08910125
 21
21.09706875
 31
0.0
  0
LINE
  5
27B
330
A2
100
AcDbEntity
  8
AM_BOR
  6
Continuous
 62
   179
100
AcDbLine
 10
445.26298625
 20
19.54930125
 30
0.0
 11
444.95454875
 21
19.85773875
 31
0.0
  0
LINE
  5
27C
330
A2
100
AcDbEntity
  8
AM_BOR
  6
Continuous
 62
   179
100
AcDbLine
 10
444.6032125
 20
20.209075
 30
0.0
 11
443.8713825
 21
20.940905
 31
0.0
  0
LINE
  5
27D
330
A2
100
AcDbEntity
  8
AM_BOR
  6
Continuous
 62
   179
100
AcDbLine
 10
444.88910375
 20
19.54930125
 30
0.0
 11
444.8499625
 21
19.5884425
 31
0.0
  0
LINE
  5
27E
330
A2
100
AcDbEntity
  8
AM_BOR
  6
Continuous
 62
   179
100
AcDbLine
 10
444.6032125
 20
19.8351925
 30
0.0
 11
444.1097125
 21
20.3286925
 31
0.0
  0
LINE
  5
27F
330
A2
100
AcDbEntity
  8
AM_BOR
  6
Continuous
 62
   179
100
AcDbLine
 10
443.85221625
 20
20.58618875
 30
0.0
 11
443.6779
 21
20.760505
 31
0.0
  0
LINE
  5
280
330
A2
100
AcDbEntity
  8
AM_BOR
  6
Continuous
 62
   179
100
AcDbLine
 10
444.51522125
 20
19.54930125
 30
0.0
 11
444.1097125
 21
19.95481
 31
0.0
  0
LINE
  5
281
330
A2
100
AcDbEntity
  8
AM_BOR
  6
Continuous
 62
   179
100
AcDbLine
 10
444.14133875
 20
19.54930125
 30
0.0
 11
444.1097125
 21
19.5809275
 31
0.0
  0
LINE
  5
282
330
A2
100
AcDbEntity
  8
AM_BOR
  6
Continuous
 62
   179
100
AcDbLine
 10
446.39215
 20
20.66343375
 30
0.0
 11
445.775275
 21
21.28030875
 31
0.0
  0
LINE
  5
283
330
A2
100
AcDbEntity
  8
AM_BOR
  6
Continuous
 62
   179
100
AcDbLine
 10
445.17516875
 20
21.88041625
 30
0.0
 11
444.730345
 21
22.32523875
 31
0.0
  0
LINE
  5
284
330
A2
100
AcDbEntity
  8
AM_BOR
  6
Continuous
 62
   179
100
AcDbLine
 10
444.6032125
 20
22.45237125
 30
0.0
 11
444.483595
 21
22.57198875
 31
0.0
  0
LINE
  5
285
330
A2
100
AcDbEntity
  8
AM_BOR
  6
Continuous
 62
   179
100
AcDbLine
 10
446.39215
 20
21.03731625
 30
0.0
 11
445.775275
 21
21.65419125
 31
0.0
  0
LINE
  5
286
330
A2
100
AcDbEntity
  8
AM_BOR
  6
Continuous
 62
   179
100
AcDbLine
 10
445.256645
 20
22.1728225
 30
0.0
 11
445.1042275
 21
22.32523875
 31
0.0
  0
LINE
  5
287
330
A2
100
AcDbEntity
  8
AM_BOR
  6
Continuous
 62
   179
100
AcDbLine
 10
446.39215
 20
21.41119875
 30
0.0
 11
445.775275
 21
22.02807375
 31
0.0
  0
LINE
  5
288
330
A2
100
AcDbEntity
  8
AM_BOR
  6
Continuous
 62
   179
100
AcDbLine
 10
445.72486125
 20
22.07848875
 30
0.0
 11
445.47811125
 21
22.32523875
 31
0.0
  0
LINE
  5
289
330
A2
100
AcDbEntity
  8
AM_BOR
  6
Continuous
 62
   179
100
AcDbLine
 10
446.39215
 20
21.7850825
 30
0.0
 11
445.775275
 21
22.4019575
 31
0.0
  0
LINE
  5
28A
330
A2
100
AcDbEntity
  8
AM_BOR
  6
Continuous
 62
   179
100
AcDbLine
 10
446.47262625
 20
22.07848875
 30
0.0
 11
445.97912625
 21
22.57198875
 31
0.0
  0
LINE
  5
28B
330
A2
100
AcDbEntity
  8
AM_BOR
  6
Continuous
 62
   179
100
AcDbLine
 10
446.84650875
 20
22.07848875
 30
0.0
 11
446.59975875
 21
22.32523875
 31
0.0
  0
LINE
  5
28C
330
A2
100
AcDbEntity
  8
AM_BOR
  6
Continuous
 62
   179
100
AcDbLine
 10
446.39215
 20
22.5328475
 30
0.0
 11
446.35300875
 21
22.57198875
 31
0.0
  0
LINE
  5
28D
330
A2
100
AcDbEntity
  8
AM_BOR
  6
Continuous
 62
   179
100
AcDbLine
 10
447.009025
 20
22.289855
 30
0.0
 11
446.97364125
 21
22.32523875
 31
0.0
  0
LINE
  5
28E
330
A2
100
AcDbEntity
  8
AM_BOR
  6
Continuous
 62
   179
100
AcDbLine
 10
406.9738375
 20
19.24086375
 30
0.0
 11
406.2335875
 21
19.98111375
 31
0.0
  0
LINE
  5
28F
330
A2
100
AcDbEntity
  8
AM_BOR
  6
Continuous
 62
   179
100
AcDbLine
 10
405.3699625
 20
20.84473875
 30
0.0
 11
404.2595875
 21
21.95511375
 31
0.0
  0
LINE
  5
290
330
A2
100
AcDbEntity
  8
AM_BOR
  6
Continuous
 62
   179
100
AcDbLine
 10
406.2260725
 20
19.61474625
 30
0.0
 11
405.859705
 21
19.98111375
 31
0.0
  0
LINE
  5
291
330
A2
100
AcDbEntity
  8
AM_BOR
  6
Continuous
 62
   179
100
AcDbLine
 10
405.2465875
 20
20.59423125
 30
0.0
 11
404.0103325
 21
21.83048625
 31
0.0
  0
LINE
  5
292
330
A2
100
AcDbEntity
  8
AM_BOR
  6
Continuous
 62
   179
100
AcDbLine
 10
405.2465875
 20
20.22034875
 30
0.0
 11
403.7610775
 21
21.70585875
 31
0.0
  0
LINE
  5
293
330
A2
100
AcDbEntity
  8
AM_BOR
  6
Continuous
 62
   179
100
AcDbLine
 10
404.73054125
 20
20.36251125
 30
0.0
 11
403.5118225
 21
21.58123125
 31
0.0
  0
LINE
  5
294
330
A2
100
AcDbEntity
  8
AM_BOR
  6
Continuous
 62
   179
100
AcDbLine
 10
403.98277625
 20
20.736395
 30
0.0
 11
403.2625675
 21
21.45660375
 31
0.0
  0
LINE
  5
295
330
A2
100
AcDbEntity
  8
AM_BOR
  6
Continuous
 62
   179
100
AcDbLine
 10
403.23501
 20
21.1102775
 30
0.0
 11
403.01331125
 21
21.33197625
 31
0.0
  0
LINE
  5
296
330
A2
100
AcDbEntity
  8
AM_BOR
  6
Continuous
 62
   179
100
AcDbLine
 10
407.2230925
 20
19.36549125
 30
0.0
 11
406.2335875
 21
20.35499625
 31
0.0
  0
LINE
  5
297
330
A2
100
AcDbEntity
  8
AM_BOR
  6
Continuous
 62
   179
100
AcDbLine
 10
405.743845
 20
20.84473875
 30
0.0
 11
404.5088425
 21
22.07974125
 31
0.0
  0
LINE
  5
298
330
A2
100
AcDbEntity
  8
AM_BOR
  6
Continuous
 62
   179
100
AcDbLine
 10
407.4723475
 20
19.49011875
 30
0.0
 11
406.2335875
 21
20.72887875
 31
0.0
  0
LINE
  5
299
330
A2
100
AcDbEntity
  8
AM_BOR
  6
Continuous
 62
   179
100
AcDbLine
 10
405.801775
 20
21.16069125
 30
0.0
 11
405.2541025
 21
21.70836375
 31
0.0
  0
LINE
  5
29A
330
A2
100
AcDbEntity
  8
AM_BOR
  6
Continuous
 62
   179
100
AcDbLine
 10
405.2465875
 20
21.71587875
 30
0.0
 11
404.7580975
 21
22.20436875
 31
0.0
  0
LINE
  5
29B
330
A2
100
AcDbEntity
  8
AM_BOR
  6
Continuous
 62
   179
100
AcDbLine
 10
407.7216025
 20
19.61474625
 30
0.0
 11
406.30654875
 21
21.02980125
 31
0.0
  0
LINE
  5
29C
330
A2
100
AcDbEntity
  8
AM_BOR
  6
Continuous
 62
   179
100
AcDbLine
 10
405.801775
 20
21.53457375
 30
0.0
 11
405.62798625
 21
21.70836375
 31
0.0
  0
LINE
  5
29D
330
A2
100
AcDbEntity
  8
AM_BOR
  6
Continuous
 62
   179
100
AcDbLine
 10
405.2465875
 20
22.08976125
 30
0.0
 11
405.0073525
 21
22.32899625
 31
0.0
  0
LINE
  5
29E
330
A2
100
AcDbEntity
  8
AM_BOR
  6
Continuous
 62
   179
100
AcDbLine
 10
407.9708575
 20
19.73937375
 30
0.0
 11
407.72911875
 21
19.98111375
 31
0.0
  0
LINE
  5
29F
330
A2
100
AcDbEntity
  8
AM_BOR
  6
Continuous
 62
   179
100
AcDbLine
 10
407.7140875
 20
19.996145
 30
0.0
 11
406.68043125
 21
21.02980125
 31
0.0
  0
LINE
  5
2A0
330
A2
100
AcDbEntity
  8
AM_BOR
  6
Continuous
 62
   179
100
AcDbLine
 10
408.22011375
 20
19.86400125
 30
0.0
 11
408.10300125
 21
19.98111375
 31
0.0
  0
LINE
  5
2A1
330
A2
100
AcDbEntity
  8
AM_BOR
  6
Continuous
 62
   179
100
AcDbLine
 10
407.7140875
 20
20.3700275
 30
0.0
 11
407.05431375
 21
21.02980125
 31
0.0
  0
LINE
  5
2A2
330
A2
100
AcDbEntity
  8
AM_BOR
  6
Continuous
 62
   179
100
AcDbLine
 10
406.56081375
 20
21.52330125
 30
0.0
 11
406.2335875
 21
21.8505275
 31
0.0
  0
LINE
  5
2A3
330
A2
100
AcDbEntity
  8
AM_BOR
  6
Continuous
 62
   179
100
AcDbLine
 10
405.51212625
 20
22.57198875
 30
0.0
 11
405.50586375
 21
22.57825125
 31
0.0
  0
LINE
  5
2A4
330
A2
100
AcDbEntity
  8
AM_BOR
  6
Continuous
 62
   179
100
AcDbLine
 10
407.7140875
 20
20.74391
 30
0.0
 11
407.42819625
 21
21.02980125
 31
0.0
  0
LINE
  5
2A5
330
A2
100
AcDbEntity
  8
AM_BOR
  6
Continuous
 62
   179
100
AcDbLine
 10
406.93469625
 20
21.52330125
 30
0.0
 11
406.2335875
 21
22.22441
 31
0.0
  0
LINE
  5
2A6
330
A2
100
AcDbEntity
  8
AM_BOR
  6
Continuous
 62
   179
100
AcDbLine
 10
405.88600875
 20
22.57198875
 30
0.0
 11
405.75511875
 21
22.70287875
 31
0.0
  0
LINE
  5
2A7
330
A2
100
AcDbEntity
  8
AM_BOR
  6
Continuous
 62
   179
100
AcDbLine
 10
408.71862375
 20
20.11325625
 30
0.0
 11
408.7010875
 21
20.1307925
 31
0.0
  0
LINE
  5
2A8
330
A2
100
AcDbEntity
  8
AM_BOR
  6
Continuous
 62
   179
100
AcDbLine
 10
407.30857875
 20
21.52330125
 30
0.0
 11
406.00437375
 21
22.82750625
 31
0.0
  0
LINE
  5
2A9
330
A2
100
AcDbEntity
  8
AM_BOR
  6
Continuous
 62
   179
100
AcDbLine
 10
408.96787875
 20
20.23788375
 30
0.0
 11
408.7010875
 21
20.504675
 31
0.0
  0
LINE
  5
2AA
330
A2
100
AcDbEntity
  8
AM_BOR
  6
Continuous
 62
   179
100
AcDbLine
 10
408.36102375
 20
20.84473875
 30
0.0
 11
408.1459
 21
21.0598625
 31
0.0
  0
LINE
  5
2AB
330
A2
100
AcDbEntity
  8
AM_BOR
  6
Continuous
 62
   179
100
AcDbLine
 10
407.68246125
 20
21.52330125
 30
0.0
 11
406.25362875
 21
22.95213375
 31
0.0
  0
LINE
  5
2AC
330
A2
100
AcDbEntity
  8
AM_BOR
  6
Continuous
 62
   179
100
AcDbLine
 10
409.21713375
 20
20.36251125
 30
0.0
 11
408.1459
 21
21.433745
 31
0.0
  0
LINE
  5
2AD
330
A2
100
AcDbEntity
  8
AM_BOR
  6
Continuous
 62
   179
100
AcDbLine
 10
407.7140875
 20
21.8655575
 30
0.0
 11
406.50288375
 21
23.07676125
 31
0.0
  0
LINE
  5
2AE
330
A2
100
AcDbEntity
  8
AM_BOR
  6
Continuous
 62
   179
100
AcDbLine
 10
409.46638875
 20
20.48714
 30
0.0
 11
408.245165
 21
21.70836375
 31
0.0
  0
LINE
  5
2AF
330
A2
100
AcDbEntity
  8
AM_BOR
  6
Continuous
 62
   179
100
AcDbLine
 10
407.7140875
 20
22.23944125
 30
0.0
 11
406.75213875
 21
23.20139
 31
0.0
  0
LINE
  5
2B0
330
A2
100
AcDbEntity
  8
AM_BOR
  6
Continuous
 62
   179
100
AcDbLine
 10
409.71564375
 20
20.6117675
 30
0.0
 11
408.6190475
 21
21.70836375
 31
0.0
  0
LINE
  5
2B1
330
A2
100
AcDbEntity
  8
AM_BOR
  6
Continuous
 62
   179
100
AcDbLine
 10
407.7554225
 20
22.57198875
 30
0.0
 11
407.0565075
 21
23.27090375
 31
0.0
  0
LINE
  5
2B2
330
A2
100
AcDbEntity
  8
AM_BOR
  6
Continuous
 62
   179
100
AcDbLine
 10
409.96489875
 20
20.736395
 30
0.0
 11
408.7010875
 21
22.00020625
 31
0.0
  0
LINE
  5
2B3
330
A2
100
AcDbEntity
  8
AM_BOR
  6
Continuous
 62
   179
100
AcDbLine
 10
408.129305
 20
22.57198875
 30
0.0
 11
407.8042725
 21
22.89702125
 31
0.0
  0
LINE
  5
2B4
330
A2
100
AcDbEntity
  8
AM_BOR
  6
Continuous
 62
   179
100
AcDbLine
 10
410.21415375
 20
20.8610225
 30
0.0
 11
408.7010875
 21
22.37408875
 31
0.0
  0
LINE
  5
2B5
330
A2
100
AcDbEntity
  8
AM_BOR
  6
Continuous
 62
   179
100
AcDbLine
 10
410.46341
 20
20.98565
 30
0.0
 11
409.29980375
 21
22.14925625
 31
0.0
  0
LINE
  5
2B6
330
A2
100
AcDbEntity
  8
AM_BOR
  6
Continuous
 62
   179
100
AcDbLine
 10
410.712665
 20
21.1102775
 30
0.0
 11
410.04756875
 21
21.7753725
 31
0.0
  0
LINE
  5
2B7
330
A2
100
AcDbEntity
  8
AM_BOR
  6
Continuous
 62
   179
100
AcDbLine
 10
410.96192
 20
21.234905
 30
0.0
 11
410.79533375
 21
21.40149
 31
0.0
  0
LINE
  5
2B8
330
A2
100
AcDbEntity
  8
AM_BOR
  6
Continuous
 62
   179
100
AcDbLine
 10
415.40332
 20
19.94113125
 30
0.0
 11
414.28380625
 21
21.060645
 31
0.0
  0
LINE
  5
2B9
330
A2
100
AcDbEntity
  8
AM_BOR
  6
Continuous
 62
   179
100
AcDbLine
 10
413.4633625
 20
21.88108875
 30
0.0
 11
412.5257125
 21
22.81873875
 31
0.0
  0
LINE
  5
2BA
330
A2
100
AcDbEntity
  8
AM_BOR
  6
Continuous
 62
   179
100
AcDbLine
 10
415.36870125
 20
19.6018675
 30
0.0
 11
414.2491875
 21
20.72138125
 31
0.0
  0
LINE
  5
2BB
330
A2
100
AcDbEntity
  8
AM_BOR
  6
Continuous
 62
   179
100
AcDbLine
 10
413.34779875
 20
21.62277
 30
0.0
 11
412.41014875
 21
22.56042
 31
0.0
  0
LINE
  5
2BC
330
A2
100
AcDbEntity
  8
AM_BOR
  6
Continuous
 62
   179
100
AcDbLine
 10
415.047385
 20
19.54930125
 30
0.0
 11
414.21456875
 21
20.3821175
 31
0.0
  0
LINE
  5
2BD
330
A2
100
AcDbEntity
  8
AM_BOR
  6
Continuous
 62
   179
100
AcDbLine
 10
413.232235
 20
21.36445125
 30
0.0
 11
412.294585
 21
22.30210125
 31
0.0
  0
LINE
  5
2BE
330
A2
100
AcDbEntity
  8
AM_BOR
  6
Continuous
 62
   179
100
AcDbLine
 10
414.6735025
 20
19.54930125
 30
0.0
 11
414.17995
 21
20.04285375
 31
0.0
  0
LINE
  5
2BF
330
A2
100
AcDbEntity
  8
AM_BOR
  6
Continuous
 62
   179
100
AcDbLine
 10
413.11667125
 20
21.10613125
 30
0.0
 11
412.17902125
 21
22.04378125
 31
0.0
  0
LINE
  5
2C0
330
A2
100
AcDbEntity
  8
AM_BOR
  6
Continuous
 62
   179
100
AcDbLine
 10
414.29961875
 20
19.54930125
 30
0.0
 11
414.14533125
 21
19.70358875
 31
0.0
  0
LINE
  5
2C1
330
A2
100
AcDbEntity
  8
AM_BOR
  6
Continuous
 62
   179
100
AcDbLine
 10
413.0011075
 20
20.8478125
 30
0.0
 11
412.0634575
 21
21.7854625
 31
0.0
  0
LINE
  5
2C2
330
A2
100
AcDbEntity
  8
AM_BOR
  6
Continuous
 62
   179
100
AcDbLine
 10
412.88554375
 20
20.58949375
 30
0.0
 11
411.94789375
 21
21.52714375
 31
0.0
  0
LINE
  5
2C3
330
A2
100
AcDbEntity
  8
AM_BOR
  6
Continuous
 62
   179
100
AcDbLine
 10
412.7678725
 20
20.3332825
 30
0.0
 11
411.83233
 21
21.268825
 31
0.0
  0
LINE
  5
2C4
330
A2
100
AcDbEntity
  8
AM_BOR
  6
Continuous
 62
   179
100
AcDbLine
 10
412.6208625
 20
20.10641
 30
0.0
 11
411.71676625
 21
21.01050625
 31
0.0
  0
LINE
  5
2C5
330
A2
100
AcDbEntity
  8
AM_BOR
  6
Continuous
 62
   179
100
AcDbLine
 10
412.4390325
 20
19.9143575
 30
0.0
 11
411.6012025
 21
20.7521875
 31
0.0
  0
LINE
  5
2C6
330
A2
100
AcDbEntity
  8
AM_BOR
  6
Continuous
 62
   179
100
AcDbLine
 10
412.2229125
 20
19.756595
 30
0.0
 11
411.47236125
 21
20.50714625
 31
0.0
  0
LINE
  5
2C7
330
A2
100
AcDbEntity
  8
AM_BOR
  6
Continuous
 62
   179
100
AcDbLine
 10
411.9693025
 20
19.63632125
 30
0.0
 11
411.2932425
 21
20.31238125
 31
0.0
  0
LINE
  5
2C8
330
A2
100
AcDbEntity
  8
AM_BOR
  6
Continuous
 62
   179
100
AcDbLine
 10
411.66914125
 20
19.5626
 30
0.0
 11
411.06249125
 21
20.16925
 31
0.0
  0
LINE
  5
2C9
330
A2
100
AcDbEntity
  8
AM_BOR
  6
Continuous
 62
   179
100
AcDbLine
 10
411.3085575
 20
19.54930125
 30
0.0
 11
410.833455
 21
20.02440375
 31
0.0
  0
LINE
  5
2CA
330
A2
100
AcDbEntity
  8
AM_BOR
  6
Continuous
 62
   179
100
AcDbLine
 10
410.934675
 20
19.54930125
 30
0.0
 11
410.73998375
 21
19.74399125
 31
0.0
  0
LINE
  5
2CB
330
A2
100
AcDbEntity
  8
AM_BOR
  6
Continuous
 62
   179
100
AcDbLine
 10
415.43793875
 20
20.280395
 30
0.0
 11
414.318425
 21
21.39990875
 31
0.0
  0
LINE
  5
2CC
330
A2
100
AcDbEntity
  8
AM_BOR
  6
Continuous
 62
   179
100
AcDbLine
 10
413.57892625
 20
22.1394075
 30
0.0
 11
412.899595
 21
22.81873875
 31
0.0
  0
LINE
  5
2CD
330
A2
100
AcDbEntity
  8
AM_BOR
  6
Continuous
 62
   179
100
AcDbLine
 10
416.542915
 20
19.54930125
 30
0.0
 11
416.33559125
 21
19.756625
 31
0.0
  0
LINE
  5
2CE
330
A2
100
AcDbEntity
  8
AM_BOR
  6
Continuous
 62
   179
100
AcDbLine
 10
415.4725575
 20
20.61965875
 30
0.0
 11
414.35304375
 21
21.7391725
 31
0.0
  0
LINE
  5
2CF
330
A2
100
AcDbEntity
  8
AM_BOR
  6
Continuous
 62
   179
100
AcDbLine
 10
413.69449
 20
22.39772625
 30
0.0
 11
413.2734775
 21
22.81873875
 31
0.0
  0
LINE
  5
2D0
330
A2
100
AcDbEntity
  8
AM_BOR
  6
Continuous
 62
   179
100
AcDbLine
 10
416.91679875
 20
19.54930125
 30
0.0
 11
416.40461625
 21
20.06148375
 31
0.0
  0
LINE
  5
2D1
330
A2
100
AcDbEntity
  8
AM_BOR
  6
Continuous
 62
   179
100
AcDbLine
 10
415.50717625
 20
20.9589225
 30
0.0
 11
414.3876625
 21
22.07843625
 31
0.0
  0
LINE
  5
2D2
330
A2
100
AcDbEntity
  8
AM_BOR
  6
Continuous
 62
   179
100
AcDbLine
 10
413.81005375
 20
22.656045
 30
0.0
 11
413.64736125
 21
22.81873875
 31
0.0
  0
LINE
  5
2D3
330
A2
100
AcDbEntity
  8
AM_BOR
  6
Continuous
 62
   179
100
AcDbLine
 10
417.29068125
 20
19.54930125
 30
0.0
 11
416.47364
 21
20.36634125
 31
0.0
  0
LINE
  5
2D4
330
A2
100
AcDbEntity
  8
AM_BOR
  6
Continuous
 62
   179
100
AcDbLine
 10
415.541795
 20
21.29818625
 30
0.0
 11
414.42228125
 21
22.41770125
 31
0.0
  0
LINE
  5
2D5
330
A2
100
AcDbEntity
  8
AM_BOR
  6
Continuous
 62
   179
100
AcDbLine
 10
417.64924375
 20
19.56462125
 30
0.0
 11
416.542665
 21
20.6712
 31
0.0
  0
LINE
  5
2D6
330
A2
100
AcDbEntity
  8
AM_BOR
  6
Continuous
 62
   179
100
AcDbLine
 10
415.57641375
 20
21.63745125
 30
0.0
 11
414.64187625
 21
22.57198875
 31
0.0
  0
LINE
  5
2D7
330
A2
100
AcDbEntity
  8
AM_BOR
  6
Continuous
 62
   179
100
AcDbLine
 10
417.71826875
 20
19.86947875
 30
0.0
 11
416.61168875
 21
20.97605875
 31
0.0
  0
LINE
  5
2D8
330
A2
100
AcDbEntity
  8
AM_BOR
  6
Continuous
 62
   179
100
AcDbLine
 10
415.6110325
 20
21.976715
 30
0.0
 11
415.01575875
 21
22.57198875
 31
0.0
  0
LINE
  5
2D9
330
A2
100
AcDbEntity
  8
AM_BOR
  6
Continuous
 62
   179
100
AcDbLine
 10
417.7872925
 20
20.1743375
 30
0.0
 11
416.68071375
 21
21.28091625
 31
0.0
  0
LINE
  5
2DA
330
A2
100
AcDbEntity
  8
AM_BOR
  6
Continuous
 62
   179
100
AcDbLine
 10
416.06820375
 20
21.89342625
 30
0.0
 11
416.04753625
 21
21.91409375
 31
0.0
  0
LINE
  5
2DB
330
A2
100
AcDbEntity
  8
AM_BOR
  6
Continuous
 62
   179
100
AcDbLine
 10
415.64565125
 20
22.31597875
 30
0.0
 11
415.38964125
 21
22.57198875
 31
0.0
  0
LINE
  5
2DC
330
A2
100
AcDbEntity
  8
AM_BOR
  6
Continuous
 62
   179
100
AcDbLine
 10
417.8563175
 20
20.47919625
 30
0.0
 11
416.74973875
 21
21.585775
 31
0.0
  0
LINE
  5
2DD
330
A2
100
AcDbEntity
  8
AM_BOR
  6
Continuous
 62
   179
100
AcDbLine
 10
416.44208625
 20
21.89342625
 30
0.0
 11
416.12765375
 21
22.20785875
 31
0.0
  0
LINE
  5
2DE
330
A2
100
AcDbEntity
  8
AM_BOR
  6
Continuous
 62
   179
100
AcDbLine
 10
418.4815325
 20
20.22786375
 30
0.0
 11
418.26570875
 21
20.44368625
 31
0.0
  0
LINE
  5
2DF
330
A2
100
AcDbEntity
  8
AM_BOR
  6
Continuous
 62
   179
100
AcDbLine
 10
417.92534125
 20
20.78405375
 30
0.0
 11
416.8187625
 21
21.8906325
 31
0.0
  0
LINE
  5
2E0
330
A2
100
AcDbEntity
  8
AM_BOR
  6
Continuous
 62
   179
100
AcDbLine
 10
416.81597
 20
21.89342625
 30
0.0
 11
416.2077725
 21
22.50162375
 31
0.0
  0
LINE
  5
2E1
330
A2
100
AcDbEntity
  8
AM_BOR
  6
Continuous
 62
   179
100
AcDbLine
 10
418.855415
 20
20.22786375
 30
0.0
 11
418.35199
 21
20.73128875
 31
0.0
  0
LINE
  5
2E2
330
A2
100
AcDbEntity
  8
AM_BOR
  6
Continuous
 62
   179
100
AcDbLine
 10
417.99436625
 20
21.0889125
 30
0.0
 11
416.51129
 21
22.57198875
 31
0.0
  0
LINE
  5
2E3
330
A2
100
AcDbEntity
  8
AM_BOR
  6
Continuous
 62
   179
100
AcDbLine
 10
419.22596125
 20
20.2312
 30
0.0
 11
418.6124225
 21
20.84473875
 31
0.0
  0
LINE
  5
2E4
330
A2
100
AcDbEntity
  8
AM_BOR
  6
Continuous
 62
   179
100
AcDbLine
 10
418.06339125
 20
21.39377
 30
0.0
 11
416.8851725
 21
22.57198875
 31
0.0
  0
LINE
  5
2E5
330
A2
100
AcDbEntity
  8
AM_BOR
  6
Continuous
 62
   179
100
AcDbLine
 10
419.53757625
 20
20.2934675
 30
0.0
 11
418.961065
 21
20.86997875
 31
0.0
  0
LINE
  5
2E6
330
A2
100
AcDbEntity
  8
AM_BOR
  6
Continuous
 62
   179
100
AcDbLine
 10
418.132415
 20
21.69862875
 30
0.0
 11
417.02583625
 21
22.8052075
 31
0.0
  0
LINE
  5
2E7
330
A2
100
AcDbEntity
  8
AM_BOR
  6
Continuous
 62
   179
100
AcDbLine
 10
419.79331875
 20
20.4116075
 30
0.0
 11
419.1759325
 21
21.02899375
 31
0.0
  0
LINE
  5
2E8
330
A2
100
AcDbEntity
  8
AM_BOR
  6
Continuous
 62
   179
100
AcDbLine
 10
418.3115
 20
21.89342625
 30
0.0
 11
417.3861875
 21
22.81873875
 31
0.0
  0
LINE
  5
2E9
330
A2
100
AcDbEntity
  8
AM_BOR
  6
Continuous
 62
   179
100
AcDbLine
 10
420.73678375
 20
19.84202625
 30
0.0
 11
420.58213625
 21
19.9966725
 31
0.0
  0
LINE
  5
2EA
330
A2
100
AcDbEntity
  8
AM_BOR
  6
Continuous
 62
   179
100
AcDbLine
 10
420.0060725
 20
20.57273625
 30
0.0
 11
419.2878525
 21
21.29095625
 31
0.0
  0
LINE
  5
2EB
330
A2
100
AcDbEntity
  8
AM_BOR
  6
Continuous
 62
   179
100
AcDbLine
 10
418.6853825
 20
21.89342625
 30
0.0
 11
417.76007
 21
22.81873875
 31
0.0
  0
LINE
  5
2EC
330
A2
100
AcDbEntity
  8
AM_BOR
  6
Continuous
 62
   179
100
AcDbLine
 10
421.14404875
 20
19.80864375
 30
0.0
 11
420.66084875
 21
20.29184375
 31
0.0
  0
LINE
  5
2ED
330
A2
100
AcDbEntity
  8
AM_BOR
  6
Continuous
 62
   179
100
AcDbLine
 10
420.17959375
 20
20.77309875
 30
0.0
 11
419.38399375
 21
21.5686975
 31
0.0
  0
LINE
  5
2EE
330
A2
100
AcDbEntity
  8
AM_BOR
  6
Continuous
 62
   179
100
AcDbLine
 10
419.05926625
 20
21.89342625
 30
0.0
 11
418.38070375
 21
22.57198875
 31
0.0
  0
LINE
  5
2EF
330
A2
100
AcDbEntity
  8
AM_BOR
  6
Continuous
 62
   179
100
AcDbLine
 10
418.33948875
 20
22.61320375
 30
0.0
 11
418.13395375
 21
22.81873875
 31
0.0
  0
LINE
  5
2F0
330
A2
100
AcDbEntity
  8
AM_BOR
  6
Continuous
 62
   179
100
AcDbLine
 10
421.55131375
 20
19.77526125
 30
0.0
 11
420.73956125
 21
20.58701375
 31
0.0
  0
LINE
  5
2F1
330
A2
100
AcDbEntity
  8
AM_BOR
  6
Continuous
 62
   179
100
AcDbLine
 10
420.3119875
 20
21.0145875
 30
0.0
 11
419.480135
 21
21.84643875
 31
0.0
  0
LINE
  5
2F2
330
A2
100
AcDbEntity
  8
AM_BOR
  6
Continuous
 62
   179
100
AcDbLine
 10
419.43314875
 20
21.89342625
 30
0.0
 11
418.75458625
 21
22.57198875
 31
0.0
  0
LINE
  5
2F3
330
A2
100
AcDbEntity
  8
AM_BOR
  6
Continuous
 62
   179
100
AcDbLine
 10
421.95857875
 20
19.74187875
 30
0.0
 11
420.9286175
 21
20.77184
 31
0.0
  0
LINE
  5
2F4
330
A2
100
AcDbEntity
  8
AM_BOR
  6
Continuous
 62
   179
100
AcDbLine
 10
420.40993875
 20
21.29051875
 30
0.0
 11
419.12846875
 21
22.57198875
 31
0.0
  0
LINE
  5
2F5
330
A2
100
AcDbEntity
  8
AM_BOR
  6
Continuous
 62
   179
100
AcDbLine
 10
422.36584375
 20
19.70849625
 30
0.0
 11
421.3358825
 21
20.7384575
 31
0.0
  0
LINE
  5
2F6
330
A2
100
AcDbEntity
  8
AM_BOR
  6
Continuous
 62
   179
100
AcDbLine
 10
420.50608
 20
21.56826
 30
0.0
 11
419.50235125
 21
22.57198875
 31
0.0
  0
LINE
  5
2F7
330
A2
100
AcDbEntity
  8
AM_BOR
  6
Continuous
 62
   179
100
AcDbLine
 10
422.77310875
 20
19.67511375
 30
0.0
 11
421.7431475
 21
20.705075
 31
0.0
  0
LINE
  5
2F8
330
A2
100
AcDbEntity
  8
AM_BOR
  6
Continuous
 62
   179
100
AcDbLine
 10
421.24524125
 20
21.20298125
 30
0.0
 11
421.1282925
 21
21.31993
 31
0.0
  0
LINE
  5
2F9
330
A2
100
AcDbEntity
  8
AM_BOR
  6
Continuous
 62
   179
100
AcDbLine
 10
420.60222125
 20
21.84600125
 30
0.0
 11
419.87623375
 21
22.57198875
 31
0.0
  0
LINE
  5
2FA
330
A2
100
AcDbEntity
  8
AM_BOR
  6
Continuous
 62
   179
100
AcDbLine
 10
423.18037375
 20
19.64173125
 30
0.0
 11
422.1504125
 21
20.6716925
 31
0.0
  0
LINE
  5
2FB
330
A2
100
AcDbEntity
  8
AM_BOR
  6
Continuous
 62
   179
100
AcDbLine
 10
421.65250625
 20
21.16959875
 30
0.0
 11
421.207005
 21
21.6151
 31
0.0
  0
LINE
  5
2FC
330
A2
100
AcDbEntity
  8
AM_BOR
  6
Continuous
 62
   179
100
AcDbLine
 10
420.6983625
 20
22.1237425
 30
0.0
 11
420.25011625
 21
22.57198875
 31
0.0
  0
LINE
  5
2FD
330
A2
100
AcDbEntity
  8
AM_BOR
  6
Continuous
 62
   179
100
AcDbLine
 10
423.58763875
 20
19.60834875
 30
0.0
 11
422.5576775
 21
20.63831
 31
0.0
  0
LINE
  5
2FE
330
A2
100
AcDbEntity
  8
AM_BOR
  6
Continuous
 62
   179
100
AcDbLine
 10
422.05977125
 20
21.13621625
 30
0.0
 11
421.371295
 21
21.8246925
 31
0.0
  0
LINE
  5
2FF
330
A2
100
AcDbEntity
  8
AM_BOR
  6
Continuous
 62
   179
100
AcDbLine
 10
420.79450375
 20
22.40148375
 30
0.0
 11
420.624
 21
22.57198875
 31
0.0
  0
LINE
  5
300
330
A2
100
AcDbEntity
  8
AM_BOR
  6
Continuous
 62
   179
100
AcDbLine
 10
423.99490375
 20
19.5749675
 30
0.0
 11
422.9649425
 21
20.6049275
 31
0.0
  0
LINE
  5
301
330
A2
100
AcDbEntity
  8
AM_BOR
  6
Continuous
 62
   179
100
AcDbLine
 10
422.46703625
 20
21.10283375
 30
0.0
 11
421.77856
 21
21.79131125
 31
0.0
  0
LINE
  5
302
330
A2
100
AcDbEntity
  8
AM_BOR
  6
Continuous
 62
   179
100
AcDbLine
 10
421.38089625
 20
22.188975
 30
0.0
 11
421.25404125
 21
22.31583
 31
0.0
  0
LINE
  5
303
330
A2
100
AcDbEntity
  8
AM_BOR
  6
Continuous
 62
   179
100
AcDbLine
 10
424.32622
 20
19.61753375
 30
0.0
 11
423.37220875
 21
20.571545
 31
0.0
  0
LINE
  5
304
330
A2
100
AcDbEntity
  8
AM_BOR
  6
Continuous
 62
   179
100
AcDbLine
 10
422.8743025
 20
21.06945125
 30
0.0
 11
422.185825
 21
21.75792875
 31
0.0
  0
LINE
  5
305
330
A2
100
AcDbEntity
  8
AM_BOR
  6
Continuous
 62
   179
100
AcDbLine
 10
421.78816125
 20
22.1555925
 30
0.0
 11
421.33275375
 21
22.611
 31
0.0
  0
LINE
  5
306
330
A2
100
AcDbEntity
  8
AM_BOR
  6
Continuous
 62
   179
100
AcDbLine
 10
424.4049325
 20
19.91270375
 30
0.0
 11
423.77947375
 21
20.5381625
 31
0.0
  0
LINE
  5
307
330
A2
100
AcDbEntity
  8
AM_BOR
  6
Continuous
 62
   179
100
AcDbLine
 10
423.2815675
 20
21.03606875
 30
0.0
 11
422.59309
 21
21.72454625
 31
0.0
  0
LINE
  5
308
330
A2
100
AcDbEntity
  8
AM_BOR
  6
Continuous
 62
   179
100
AcDbLine
 10
422.19542625
 20
22.12221
 30
0.0
 11
421.4452625
 21
22.87237375
 31
0.0
  0
LINE
  5
309
330
A2
100
AcDbEntity
  8
AM_BOR
  6
Continuous
 62
   179
100
AcDbLine
 10
424.483645
 20
20.207875
 30
0.0
 11
424.18673875
 21
20.50478125
 31
0.0
  0
LINE
  5
30A
330
A2
100
AcDbEntity
  8
AM_BOR
  6
Continuous
 62
   179
100
AcDbLine
 10
423.6888325
 20
21.0026875
 30
0.0
 11
423.000355
 21
21.69116375
 31
0.0
  0
LINE
  5
30B
330
A2
100
AcDbEntity
  8
AM_BOR
  6
Continuous
 62
   179
100
AcDbLine
 10
422.60269125
 20
22.0888275
 30
0.0
 11
421.8525275
 21
22.83899125
 31
0.0
  0
LINE
  5
30C
330
A2
100
AcDbEntity
  8
AM_BOR
  6
Continuous
 62
   179
100
AcDbLine
 10
424.0960975
 20
20.969305
 30
0.0
 11
423.40762
 21
21.65778125
 31
0.0
  0
LINE
  5
30D
330
A2
100
AcDbEntity
  8
AM_BOR
  6
Continuous
 62
   179
100
AcDbLine
 10
423.00995625
 20
22.055445
 30
0.0
 11
422.2597925
 21
22.80560875
 31
0.0
  0
LINE
  5
30E
330
A2
100
AcDbEntity
  8
AM_BOR
  6
Continuous
 62
   179
100
AcDbLine
 10
424.3910725
 20
21.0482125
 30
0.0
 11
423.81488625
 21
21.62439875
 31
0.0
  0
LINE
  5
30F
330
A2
100
AcDbEntity
  8
AM_BOR
  6
Continuous
 62
   179
100
AcDbLine
 10
423.41722125
 20
22.0220625
 30
0.0
 11
422.6670575
 21
22.77222625
 31
0.0
  0
LINE
  5
310
330
A2
100
AcDbEntity
  8
AM_BOR
  6
Continuous
 62
   179
100
AcDbLine
 10
424.46978375
 20
21.3433825
 30
0.0
 11
424.22215125
 21
21.59101625
 31
0.0
  0
LINE
  5
311
330
A2
100
AcDbEntity
  8
AM_BOR
  6
Continuous
 62
   179
100
AcDbLine
 10
423.82448625
 20
21.98868
 30
0.0
 11
423.0743225
 21
22.738845
 31
0.0
  0
LINE
  5
312
330
A2
100
AcDbEntity
  8
AM_BOR
  6
Continuous
 62
   179
100
AcDbLine
 10
424.23175125
 20
21.9552975
 30
0.0
 11
423.4815875
 21
22.7054625
 31
0.0
  0
LINE
  5
313
330
A2
100
AcDbEntity
  8
AM_BOR
  6
Continuous
 62
   179
100
AcDbLine
 10
424.6390175
 20
21.921915
 30
0.0
 11
423.8888525
 21
22.67208
 31
0.0
  0
LINE
  5
314
330
A2
100
AcDbEntity
  8
AM_BOR
  6
Continuous
 62
   179
100
AcDbLine
 10
424.8033225
 20
22.13149375
 30
0.0
 11
424.2961175
 21
22.6386975
 31
0.0
  0
LINE
  5
315
330
A2
100
AcDbEntity
  8
AM_BOR
  6
Continuous
 62
   179
100
AcDbLine
 10
424.88203375
 20
22.42666375
 30
0.0
 11
424.7033825
 21
22.605315
 31
0.0
  0
ENDBLK
  5
A4
330
A2
100
AcDbEntity
  8
0
100
AcDbBlockEnd
  0
BLOCK
  5
317
330
316
100
AcDbEntity
  8
0
100
AcDbBlockBegin
  2
ﾌﾞﾛｯｸ10
 70
     2
 10
0.0
 20
0.0
 30
0.0
  3
ﾌﾞﾛｯｸ10
  1

  0
LINE
  5
319
330
316
100
AcDbEntity
  8
SLD-0
370
    18
100
AcDbLine
 10
0.2281284623
 20
0.0
 30
0.0
 11
583.4281284623
 21
0.0
 31
0.0
  0
LINE
  5
31A
330
316
100
AcDbEntity
  8
SLD-0
  6
Continuous
 62
   179
370
    18
100
AcDbLine
 10
0.2281284623
 20
49.68135
 30
0.0
 11
583.4281284623
 21
49.68135
 31
0.0
  0
LINE
  5
31B
330
316
100
AcDbEntity
  8
SLD-0
  6
Continuous
 62
   179
370
    18
100
AcDbLine
 10
583.4281284623
 20
90.79695
 30
0.0
 11
185.9773284623
 21
90.79695
 31
0.0
  0
LINE
  5
31C
330
316
100
AcDbEntity
  8
SLD-0
  6
Continuous
 62
   179
370
    18
100
AcDbLine
 10
189.0609984623
 20
94.84459614
 30
0.0
 11
196.2562284623
 21
107.30710386
 31
0.0
  0
LINE
  5
31D
330
316
100
AcDbEntity
  8
SLD-0
  6
Continuous
 62
   179
370
    18
100
AcDbLine
 10
196.2562284623
 20
107.30710386
 30
0.0
 11
203.4514584623
 21
94.84459614
 31
0.0
  0
LINE
  5
31E
330
316
100
AcDbEntity
  8
SLD-0
  6
Continuous
 62
   179
370
    18
100
AcDbLine
 10
203.4514584623
 20
94.84459614
 30
0.0
 11
189.0609984623
 21
94.84459614
 31
0.0
  0
LINE
  5
31F
330
316
100
AcDbEntity
  8
SLD-0
  6
Continuous
 62
   179
370
    18
100
AcDbLine
 10
185.9773284623
 20
101.07585
 30
0.0
 11
0.2281284623
 21
101.07585
 31
0.0
  0
LINE
  5
320
330
316
100
AcDbEntity
  8
SLD-0
  6
Continuous
 62
   179
370
    18
100
AcDbLine
 10
0.2281284623
 20
29.12355
 30
0.0
 11
165.4195284623
 21
29.12355
 31
0.0
  0
LINE
  5
321
330
316
100
AcDbEntity
  8
SLD-0
  6
Continuous
 62
   179
370
    18
100
AcDbLine
 10
165.4195284623
 20
49.68135
 30
0.0
 11
165.4195284623
 21
0.0
 31
0.0
  0
LINE
  5
322
330
316
100
AcDbEntity
  8
SLD-0
  6
Continuous
 62
   179
370
    18
100
AcDbLine
 10
185.9773284623
 20
49.68135
 30
0.0
 11
185.9773284623
 21
152.47035
 31
0.0
  0
LINE
  5
323
330
316
100
AcDbEntity
  8
SLD-0
  6
Continuous
 62
   179
370
    18
100
AcDbLine
 10
196.2562284623
 20
148.42270386
 30
0.0
 11
189.0609984623
 21
135.96019614
 31
0.0
  0
LINE
  5
324
330
316
100
AcDbEntity
  8
SLD-0
  6
Continuous
 62
   179
370
    18
100
AcDbLine
 10
189.0609984623
 20
135.96019614
 30
0.0
 11
203.4514584623
 21
135.96019614
 31
0.0
  0
LINE
  5
325
330
316
100
AcDbEntity
  8
SLD-0
  6
Continuous
 62
   179
370
    18
100
AcDbLine
 10
203.4514584623
 20
135.96019614
 30
0.0
 11
196.2562284623
 21
148.42270386
 31
0.0
  0
LINE
  5
326
330
316
100
AcDbEntity
  8
SLD-0
  6
Continuous
 62
   179
370
    18
100
AcDbLine
 10
206.5351284623
 20
152.47035
 30
0.0
 11
206.5351284623
 21
90.79695
 31
0.0
  0
LINE
  5
327
330
316
100
AcDbEntity
  8
SLD-0
  6
Continuous
 62
   179
370
    18
100
AcDbLine
 10
203.4514584623
 20
115.40239614
 30
0.0
 11
189.0609984623
 21
115.40239614
 31
0.0
  0
LINE
  5
328
330
316
100
AcDbEntity
  8
SLD-0
  6
Continuous
 62
   179
370
    18
100
AcDbLine
 10
189.0609984623
 20
115.40239614
 30
0.0
 11
196.2562284623
 21
127.86490386
 31
0.0
  0
LINE
  5
329
330
316
100
AcDbEntity
  8
SLD-0
  6
Continuous
 62
   179
370
    18
100
AcDbLine
 10
196.2562284623
 20
127.86490386
 30
0.0
 11
203.4514584623
 21
115.40239614
 31
0.0
  0
LINE
  5
32A
330
316
100
AcDbEntity
  8
SLD-0
  6
Continuous
 62
   179
370
    18
100
AcDbLine
 10
185.9773284623
 20
111.35475
 30
0.0
 11
583.4281284623
 21
111.35475
 31
0.0
  0
LINE
  5
32B
330
316
100
AcDbEntity
  8
SLD-0
  6
Continuous
 62
   179
370
    18
100
AcDbLine
 10
583.4281284623
 20
131.91255
 30
0.0
 11
185.9773284623
 21
131.91255
 31
0.0
  0
LINE
  5
32C
330
316
100
AcDbEntity
  8
SLD-0
  6
Continuous
 62
   179
370
    18
100
AcDbLine
 10
233.9455284623
 20
90.79695
 30
0.0
 11
233.9455284623
 21
49.68135
 31
0.0
  0
LINE
  5
32D
330
316
100
AcDbEntity
  8
SLD-0
  6
Continuous
 62
   179
370
    18
100
AcDbLine
 10
185.9773284623
 20
71.5240125
 30
0.0
 11
370.9975284623
 21
71.5240125
 31
0.0
  0
LINE
  5
32E
330
316
100
AcDbEntity
  8
SLD-0
  6
Continuous
 62
   179
370
    18
100
AcDbLine
 10
370.9975284623
 20
90.79695
 30
0.0
 11
370.9975284623
 21
0.0
 31
0.0
  0
LINE
  5
32F
330
316
100
AcDbEntity
  8
SLD-0
  6
Continuous
 62
   179
370
    18
100
AcDbLine
 10
408.6868284623
 20
49.68135
 30
0.0
 11
408.6868284623
 21
152.47035
 31
0.0
  0
LINE
  5
330
330
316
100
AcDbEntity
  8
SLD-0
  6
Continuous
 62
   179
370
    18
100
AcDbLine
 10
398.4079284623
 20
148.42270386
 30
0.0
 11
391.2126984623
 21
135.96019614
 31
0.0
  0
LINE
  5
331
330
316
100
AcDbEntity
  8
SLD-0
  6
Continuous
 62
   179
370
    18
100
AcDbLine
 10
391.2126984623
 20
135.96019614
 30
0.0
 11
405.6031584623
 21
135.96019614
 31
0.0
  0
LINE
  5
332
330
316
100
AcDbEntity
  8
SLD-0
  6
Continuous
 62
   179
370
    18
100
AcDbLine
 10
405.6031584623
 20
135.96019614
 30
0.0
 11
398.4079284623
 21
148.42270386
 31
0.0
  0
LINE
  5
333
330
316
100
AcDbEntity
  8
SLD-0
  6
Continuous
 62
   179
370
    18
100
AcDbLine
 10
388.1290284623
 20
152.47035
 30
0.0
 11
388.1290284623
 21
90.79695
 31
0.0
  0
LINE
  5
334
330
316
100
AcDbEntity
  8
SLD-0
  6
Continuous
 62
   179
370
    18
100
AcDbLine
 10
398.4079284623
 20
127.86490386
 30
0.0
 11
391.2126984623
 21
115.40239614
 31
0.0
  0
LINE
  5
335
330
316
100
AcDbEntity
  8
SLD-0
  6
Continuous
 62
   179
370
    18
100
AcDbLine
 10
391.2126984623
 20
115.40239614
 30
0.0
 11
405.6031584623
 21
115.40239614
 31
0.0
  0
LINE
  5
336
330
316
100
AcDbEntity
  8
SLD-0
  6
Continuous
 62
   179
370
    18
100
AcDbLine
 10
405.6031584623
 20
115.40239614
 30
0.0
 11
398.4079284623
 21
127.86490386
 31
0.0
  0
LINE
  5
337
330
316
100
AcDbEntity
  8
SLD-0
  6
Continuous
 62
   179
370
    18
100
AcDbLine
 10
398.4079284623
 20
107.30710386
 30
0.0
 11
391.2126984623
 21
94.84459614
 31
0.0
  0
LINE
  5
338
330
316
100
AcDbEntity
  8
SLD-0
  6
Continuous
 62
   179
370
    18
100
AcDbLine
 10
391.2126984623
 20
94.84459614
 30
0.0
 11
405.6031584623
 21
94.84459614
 31
0.0
  0
LINE
  5
339
330
316
100
AcDbEntity
  8
SLD-0
  6
Continuous
 62
   179
370
    18
100
AcDbLine
 10
405.6031584623
 20
94.84459614
 30
0.0
 11
398.4079284623
 21
107.30710386
 31
0.0
  0
LINE
  5
33A
330
316
100
AcDbEntity
  8
SLD-0
  6
Continuous
 62
   179
370
    18
100
AcDbLine
 10
484.0654284623
 20
152.47035
 30
0.0
 11
484.0654284623
 21
90.79695
 31
0.0
  0
LINE
  5
33B
330
316
100
AcDbEntity
  8
SLD-0
  6
Continuous
 62
   179
370
    18
100
AcDbLine
 10
281.9137284623
 20
90.79695
 30
0.0
 11
281.9137284623
 21
152.47035
 31
0.0
  0
LINE
  5
33C
330
316
100
AcDbEntity
  8
SLD-0
  6
Continuous
 62
   179
370
    18
100
AcDbLine
 10
124.3039284623
 20
49.68135
 30
0.0
 11
124.3039284623
 21
0.0
 31
0.0
  0
LINE
  5
33D
330
316
100
AcDbEntity
  8
SLD-0
  6
Continuous
 62
   179
370
    18
100
AcDbLine
 10
83.1883284623
 20
0.0
 30
0.0
 11
83.1883284623
 21
49.68135
 31
0.0
  0
LINE
  5
33E
330
316
100
AcDbEntity
  8
SLD-0
  6
Continuous
 62
   179
370
    18
100
AcDbLine
 10
48.9253284623
 20
49.68135
 30
0.0
 11
48.9253284623
 21
152.47035
 31
0.0
  0
LINE
  5
33F
330
316
100
AcDbEntity
  8
SLD-0
  6
Continuous
 62
   179
370
    18
100
AcDbLine
 10
42.0727284623
 20
49.68135
 30
0.0
 11
42.0727284623
 21
0.0
 31
0.0
  0
LINE
  5
340
330
316
100
AcDbEntity
  8
SLD-0
370
    18
100
AcDbLine
 10
583.4281284623
 20
152.47035
 30
0.0
 11
583.4281284623
 21
0.0
 31
0.0
  0
LINE
  5
341
330
316
100
AcDbEntity
  8
SLD-0
370
    18
100
AcDbLine
 10
583.4281284623
 20
152.47035
 30
0.0
 11
0.2281284623
 21
152.47035
 31
0.0
  0
LINE
  5
342
330
316
100
AcDbEntity
  8
SLD-0
370
    18
100
AcDbLine
 10
0.2281284623
 20
152.47035
 30
0.0
 11
0.2281284623
 21
0.0
 31
0.0
  0
INSERT
  5
349
330
316
100
AcDbEntity
  8
SLD-0
 62
   179
100
AcDbBlockReference
  2
SW_NOTE_0
 10
378.8776095441
 20
69.6310350285
 30
0.0
  0
INSERT
  5
34F
330
316
100
AcDbEntity
  8
SLD-0
 62
   179
100
AcDbBlockReference
  2
SW_NOTE_1
 10
290.9348797572
 20
80.9011823195
 30
0.0
  0
INSERT
  5
355
330
316
100
AcDbEntity
  8
SLD-0
 62
   179
100
AcDbBlockReference
  2
SW_NOTE_2
 10
198.9843813605
 20
80.9011823195
 30
0.0
  0
INSERT
  5
35B
330
316
100
AcDbEntity
  8
SLD-0
 62
   179
100
AcDbBlockReference
  2
SW_NOTE_3
 10
136.0442894489
 20
39.0280475608
 30
0.0
  0
INSERT
  5
361
330
316
100
AcDbEntity
  8
SLD-0
 62
   179
100
AcDbBlockReference
  2
SW_NOTE_4
 10
93.2701187931
 20
39.0280475608
 30
0.0
  0
INSERT
  5
367
330
316
100
AcDbEntity
  8
SLD-0
 62
   179
100
AcDbBlockReference
  2
SW_NOTE_5
 10
52.1295999127
 20
39.0280475608
 30
0.0
  0
INSERT
  5
36D
330
316
100
AcDbEntity
  8
SLD-0
 62
   179
100
AcDbBlockReference
  2
SW_NOTE_6
 10
10.5498772361
 20
39.0280475608
 30
0.0
  0
INSERT
  5
373
330
316
100
AcDbEntity
  8
SLD-0
 62
   179
100
AcDbBlockReference
  2
SW_NOTE_7
 10
8.9086290551
 20
74.5709527153
 30
0.0
  0
INSERT
  5
379
330
316
100
AcDbEntity
  8
SLD-0
 62
   179
100
AcDbBlockReference
  2
SW_NOTE_8
 10
8.9086290551
 20
126.4929035289
 30
0.0
  0
ATTDEF
  5
37A
330
316
100
AcDbEntity
  8
SLD-0
 62
   179
100
AcDbText
 10
0.0
 20
0.0
 30
0.0
 40
1.0
  1

100
AcDbAttributeDefinition
  3
尺度
  2
GEN-TITLE-SCA
 70
     0
  0
ATTDEF
  5
37B
330
316
100
AcDbEntity
  8
SLD-0
 62
   179
100
AcDbText
 10
0.0
 20
0.0
 30
0.0
 40
1.0
  1

100
AcDbAttributeDefinition
  3
設計
  2
GEN-TITLE-DGND
 70
     0
  0
ATTDEF
  5
37C
330
316
100
AcDbEntity
  8
SLD-0
 62
   179
100
AcDbText
 10
0.0
 20
0.0
 30
0.0
 40
1.0
  1

100
AcDbAttributeDefinition
  3
製図
  2
GEN-TITLE-DWGD
 70
     0
  0
ATTDEF
  5
37D
330
316
100
AcDbEntity
  8
SLD-0
 62
   179
100
AcDbText
 10
0.0
 20
0.0
 30
0.0
 40
1.0
  1

100
AcDbAttributeDefinition
  3
検図
  2
GEN-TITLE-CHKD
 70
     0
  0
ATTDEF
  5
37E
330
316
100
AcDbEntity
  8
SLD-0
 62
   179
100
AcDbText
 10
0.0
 20
0.0
 30
0.0
 40
1.0
  1

100
AcDbAttributeDefinition
  3
承認
  2
GEN-TITLE-APPD
 70
     0
  0
ATTDEF
  5
37F
330
316
100
AcDbEntity
  8
SLD-0
 62
   179
100
AcDbText
 10
0.0
 20
0.0
 30
0.0
 40
1.0
  1

100
AcDbAttributeDefinition
  3
コード
  2
GEN-TITLE-NR
 70
     0
  0
ATTDEF
  5
380
330
316
100
AcDbEntity
  8
SLD-0
 62
   179
100
AcDbText
 10
0.0
 20
0.0
 30
0.0
 40
1.0
  1

100
AcDbAttributeDefinition
  3
日付
  2
GEN-TITLE-DAT
 70
     0
  0
ATTDEF
  5
381
330
316
100
AcDbEntity
  8
SLD-0
 62
   179
100
AcDbText
 10
0.0
 20
0.0
 30
0.0
 40
1.0
  1

100
AcDbAttributeDefinition
  3
名称
  2
GEN-TITLE-UNIT
 70
     0
  0
ATTDEF
  5
382
330
316
100
AcDbEntity
  8
SLD-0
 62
   179
100
AcDbText
 10
0.0
 20
0.0
 30
0.0
 40
1.0
  1

100
AcDbAttributeDefinition
  3
型番
  2
GEN-TITLE-DESK1
 70
     0
  0
INSERT
  5
383
330
316
100
AcDbEntity
  8
0
  6
Continuous
 62
     7
100
AcDbBlockReference
  2
BLKF0004_1
 10
-1450.4831591122
 20
-51.0588481231
 30
0.0
 41
4.0378413239
 42
4.0378413239
 43
4.0378413239
  0
ENDBLK
  5
318
330
316
100
AcDbEntity
  8
0
100
AcDbBlockEnd
  0
BLOCK
  5
344
330
343
100
AcDbEntity
  8
0
100
AcDbBlockBegin
  2
SW_NOTE_0
 70
     0
 10
0.0
 20
0.0
 30
0.0
  3
SW_NOTE_0
  1

  0
MTEXT
  5
347
330
343
100
AcDbEntity
  8
SLD-0
 62
     0
100
AcDbMText
 10
9.177734375
 20
6.8213167896
 30
0.0
 40
5.2916666667
 41
0.0
 71
     2
 72
     1
  1
コード
  7
SLDTEXTSTYLE0
 73
     1
 44
1.0
  0
MTEXT
  5
348
330
343
100
AcDbEntity
  8
SLD-0
 62
     0
100
AcDbMText
 10
9.4392549635
 20
-0.2342386807
 30
0.0
 40
5.2916666667
 41
0.0
 71
     2
 72
     1
  1
Code
  7
SLDTEXTSTYLE0
 73
     1
 44
1.0
  0
ENDBLK
  5
345
330
343
100
AcDbEntity
  8
0
100
AcDbBlockEnd
  0
BLOCK
  5
34B
330
34A
100
AcDbEntity
  8
0
100
AcDbBlockBegin
  2
SW_NOTE_1
 70
     0
 10
0.0
 20
0.0
 30
0.0
  3
SW_NOTE_1
  1

  0
MTEXT
  5
34D
330
34A
100
AcDbEntity
  8
SLD-0
 62
     0
100
AcDbMText
 10
9.177734375
 20
6.8213167896
 30
0.0
 40
5.2916666667
 41
0.0
 71
     2
 72
     1
  1
日　付
  7
SLDTEXTSTYLE0
 73
     1
 44
1.0
  0
MTEXT
  5
34E
330
34A
100
AcDbEntity
  8
SLD-0
 62
     0
100
AcDbMText
 10
9.4557917307
 20
-0.2342386807
 30
0.0
 40
5.2916666667
 41
0.0
 71
     2
 72
     1
  1
Date
  7
SLDTEXTSTYLE0
 73
     1
 44
1.0
  0
ENDBLK
  5
34C
330
34A
100
AcDbEntity
  8
0
100
AcDbBlockEnd
  0
BLOCK
  5
351
330
350
100
AcDbEntity
  8
0
100
AcDbBlockBegin
  2
SW_NOTE_2
 70
     0
 10
0.0
 20
0.0
 30
0.0
  3
SW_NOTE_2
  1

  0
MTEXT
  5
353
330
350
100
AcDbEntity
  8
SLD-0
 62
     0
100
AcDbMText
 10
9.177734375
 20
6.8213167896
 30
0.0
 40
5.2916666667
 41
0.0
 71
     2
 72
     1
  1
尺　度
  7
SLDTEXTSTYLE0
 73
     1
 44
1.0
  0
MTEXT
  5
354
330
350
100
AcDbEntity
  8
SLD-0
 62
     0
100
AcDbMText
 10
9.3547358047
 20
-0.2342386807
 30
0.0
 40
5.2916666667
 41
0.0
 71
     2
 72
     1
  1
Scale
  7
SLDTEXTSTYLE0
 73
     1
 44
1.0
  0
ENDBLK
  5
352
330
350
100
AcDbEntity
  8
0
100
AcDbBlockEnd
  0
BLOCK
  5
357
330
356
100
AcDbEntity
  8
0
100
AcDbBlockBegin
  2
SW_NOTE_3
 70
     0
 10
0.0
 20
0.0
 30
0.0
  3
SW_NOTE_3
  1

  0
MTEXT
  5
359
330
356
100
AcDbEntity
  8
SLD-0
 62
     0
100
AcDbMText
 10
9.177734375
 20
6.8213167896
 30
0.0
 40
5.2916666667
 41
0.0
 71
     2
 72
     1
  1
設　計
  7
SLDTEXTSTYLE0
 73
     1
 44
1.0
  0
MTEXT
  5
35A
330
356
100
AcDbEntity
  8
SLD-0
 62
     0
100
AcDbMText
 10
9.0160448595
 20
-0.2342386807
 30
0.0
 40
5.2916666667
 41
0.0
 71
     2
 72
     1
  1
Design
  7
SLDTEXTSTYLE0
 73
     1
 44
1.0
  0
ENDBLK
  5
358
330
356
100
AcDbEntity
  8
0
100
AcDbBlockEnd
  0
BLOCK
  5
35D
330
35C
100
AcDbEntity
  8
0
100
AcDbBlockBegin
  2
SW_NOTE_4
 70
     0
 10
0.0
 20
0.0
 30
0.0
  3
SW_NOTE_4
  1

  0
MTEXT
  5
35F
330
35C
100
AcDbEntity
  8
SLD-0
 62
     0
100
AcDbMText
 10
9.177734375
 20
6.8213167896
 30
0.0
 40
5.2916666667
 41
0.0
 71
     2
 72
     1
  1
製　図
  7
SLDTEXTSTYLE0
 73
     1
 44
1.0
  0
MTEXT
  5
360
330
35C
100
AcDbEntity
  8
SLD-0
 62
     0
100
AcDbMText
 10
9.2910403255
 20
-0.2342386807
 30
0.0
 40
5.2916666667
 41
0.0
 71
     2
 72
     1
  1
Draw
  7
SLDTEXTSTYLE0
 73
     1
 44
1.0
  0
ENDBLK
  5
35E
330
35C
100
AcDbEntity
  8
0
100
AcDbBlockEnd
  0
BLOCK
  5
363
330
362
100
AcDbEntity
  8
0
100
AcDbBlockBegin
  2
SW_NOTE_5
 70
     0
 10
0.0
 20
0.0
 30
0.0
  3
SW_NOTE_5
  1

  0
MTEXT
  5
365
330
362
100
AcDbEntity
  8
SLD-0
 62
     0
100
AcDbMText
 10
9.177734375
 20
6.8213167896
 30
0.0
 40
5.2916666667
 41
0.0
 71
     2
 72
     1
  1
検　図
  7
SLDTEXTSTYLE0
 73
     1
 44
1.0
  0
MTEXT
  5
366
330
362
100
AcDbEntity
  8
SLD-0
 62
     0
100
AcDbMText
 10
9.1771219485
 20
-0.2342386807
 30
0.0
 40
5.2916666667
 41
0.0
 71
     2
 72
     1
  1
Check
  7
SLDTEXTSTYLE0
 73
     1
 44
1.0
  0
ENDBLK
  5
364
330
362
100
AcDbEntity
  8
0
100
AcDbBlockEnd
  0
BLOCK
  5
369
330
368
100
AcDbEntity
  8
0
100
AcDbBlockBegin
  2
SW_NOTE_6
 70
     0
 10
0.0
 20
0.0
 30
0.0
  3
SW_NOTE_6
  1

  0
MTEXT
  5
36B
330
368
100
AcDbEntity
  8
SLD-0
 62
     0
100
AcDbMText
 10
9.177734375
 20
6.8213167896
 30
0.0
 40
5.2916666667
 41
0.0
 71
     2
 72
     1
  1
承　認
  7
SLDTEXTSTYLE0
 73
     1
 44
1.0
  0
MTEXT
  5
36C
330
368
100
AcDbEntity
  8
SLD-0
 62
     0
100
AcDbMText
 10
8.6553043549
 20
-0.2342386807
 30
0.0
 40
5.2916666667
 41
0.0
 71
     2
 72
     1
  1
Approve
  7
SLDTEXTSTYLE0
 73
     1
 44
1.0
  0
ENDBLK
  5
36A
330
368
100
AcDbEntity
  8
0
100
AcDbBlockEnd
  0
BLOCK
  5
36F
330
36E
100
AcDbEntity
  8
0
100
AcDbBlockBegin
  2
SW_NOTE_7
 70
     0
 10
0.0
 20
0.0
 30
0.0
  3
SW_NOTE_7
  1

  0
MTEXT
  5
371
330
36E
100
AcDbEntity
  8
SLD-0
 62
     0
100
AcDbMText
 10
0.0
 20
12.5297384306
 30
0.0
 40
9.72
 41
0.0
 71
     1
 72
     1
  1
名　称
  7
SLDTEXTSTYLE0
 73
     1
 44
1.0
  0
MTEXT
  5
372
330
36E
100
AcDbEntity
  8
SLD-0
 62
     0
100
AcDbMText
 10
0.0
 20
1.2059385858
 30
0.0
 40
9.72
 41
0.0
 71
     1
 72
     1
  1
Name
  7
SLDTEXTSTYLE0
 73
     1
 44
1.0
  0
ENDBLK
  5
370
330
36E
100
AcDbEntity
  8
0
100
AcDbBlockEnd
  0
BLOCK
  5
375
330
374
100
AcDbEntity
  8
0
100
AcDbBlockBegin
  2
SW_NOTE_8
 70
     0
 10
0.0
 20
0.0
 30
0.0
  3
SW_NOTE_8
  1

  0
MTEXT
  5
377
330
374
100
AcDbEntity
  8
SLD-0
 62
     0
100
AcDbMText
 10
0.0
 20
12.5297384306
 30
0.0
 40
9.72
 41
0.0
 71
     1
 72
     1
  1
型　番
  7
SLDTEXTSTYLE0
 73
     1
 44
1.0
  0
MTEXT
  5
378
330
374
100
AcDbEntity
  8
SLD-0
 62
     0
100
AcDbMText
 10
0.0
 20
1.2059385858
 30
0.0
 40
9.72
 41
0.0
 71
     1
 72
     1
  1
Model
  7
SLDTEXTSTYLE0
 73
     1
 44
1.0
  0
ENDBLK
  5
376
330
374
100
AcDbEntity
  8
0
100
AcDbBlockEnd
  0
BLOCK
  5
39D
330
39C
100
AcDbEntity
  8
0
100
AcDbBlockBegin
  2
SW_NOTE_9
 70
     0
 10
0.0
 20
0.0
 30
0.0
  3
SW_NOTE_9
  1

  0
MTEXT
  5
39F
330
39C
100
AcDbEntity
  8
FORMAT
 62
     0
100
AcDbMText
 10
0.0
 20
17.0532919741
 30
0.0
 40
13.2291666667
 41
0.0
 71
     1
 72
     1
  1
■材質/仕上
  7
SLDTEXTSTYLE0
 73
     1
 44
1.0
  0
MTEXT
  5
3A0
330
39C
100
AcDbEntity
  8
FORMAT
 62
     0
100
AcDbMText
 10
0.0
 20
-5.5855975212
 30
0.0
 40
13.2291666667
 41
0.0
 71
     1
 72
     1
  1
　本体/押え金具：スチール製/溶剤焼付塗装仕上(シルバー)
  7
SLDTEXTSTYLE0
 73
     1
 44
1.0
  0
MTEXT
  5
3A1
330
39C
100
AcDbEntity
  8
FORMAT
 62
     0
100
AcDbMText
 10
0.0
 20
-50.8633765118
 30
0.0
 40
13.2291666667
 41
0.0
 71
     1
 72
     1
  1
■質量
  7
SLDTEXTSTYLE0
 73
     1
 44
1.0
  0
MTEXT
  5
3A2
330
39C
100
AcDbEntity
  8
FORMAT
 62
     0
100
AcDbMText
 10
0.0
 20
-73.5022660071
 30
0.0
 40
13.2291666667
 41
0.0
 71
     1
 72
     1
  1
　約1.5kg
  7
SLDTEXTSTYLE0
 73
     1
 44
1.0
  0
MTEXT
  5
3A3
330
39C
100
AcDbEntity
  8
FORMAT
 62
     0
100
AcDbMText
 10
0.0
 20
-118.7800449976
 30
0.0
 40
13.2291666667
 41
0.0
 71
     1
 72
     1
  1
■耐荷重
  7
SLDTEXTSTYLE0
 73
     1
 44
1.0
  0
MTEXT
  5
3A4
330
39C
100
AcDbEntity
  8
FORMAT
 62
     0
100
AcDbMText
 10
0.0
 20
-141.4189344929
 30
0.0
 40
13.2291666667
 41
0.0
 71
     1
 72
     1
  1
　約5kg
  7
SLDTEXTSTYLE0
 73
     1
 44
1.0
  0
ENDBLK
  5
39E
330
39C
100
AcDbEntity
  8
0
100
AcDbBlockEnd
  0
BLOCK
  5
400
330
3FF
100
AcDbEntity
  8
0
100
AcDbBlockBegin
  2
_OBLIQUE
 70
     0
 10
0.0
 20
0.0
 30
0.0
  3
_OBLIQUE
  1

  0
LINE
  5
402
330
3FF
100
AcDbEntity
  8
0
  6
ByBlock
 62
     0
370
    -2
100
AcDbLine
 10
-0.5
 20
-0.5
 30
0.0
 11
0.5
 21
0.5
 31
0.0
  0
ENDBLK
  5
401
330
3FF
100
AcDbEntity
  8
0
100
AcDbBlockEnd
  0
BLOCK
  5
404
330
403
100
AcDbEntity
  8
0
100
AcDbBlockBegin
  2
_D
 70
     0
 10
0.0
 20
0.0
 30
0.0
  3
_D
  1

  0
INSERT
  5
406
330
403
100
AcDbEntity
  8
FORMAT
100
AcDbBlockReference
  2
_OBLIQUE
 10
233.4817257873
 20
984.6010543353
 30
-37.9
 41
16.51
 42
16.51
 50
180.0
  0
INSERT
  5
407
330
403
100
AcDbEntity
  8
FORMAT
100
AcDbBlockReference
  2
_OBLIQUE
 10
653.4817257873
 20
984.6010543353
 30
-37.9
 41
16.51
 42
16.51
 50
0.0
  0
LINE
  5
408
330
403
100
AcDbEntity
  8
FORMAT
100
AcDbLine
 10
233.4817257873
 20
874.6010543353
 30
0.0
 11
233.4817257873
 21
989.6010543353
 31
0.0
  0
LINE
  5
409
330
403
100
AcDbEntity
  8
FORMAT
100
AcDbLine
 10
653.4817257873
 20
874.6010543353
 30
0.0
 11
653.4817257873
 21
989.6010543353
 31
0.0
  0
LINE
  5
40A
330
403
100
AcDbEntity
  8
FORMAT
100
AcDbLine
 10
233.4817257873
 20
984.6010543353
 30
0.0
 11
653.4817257873
 21
984.6010543353
 31
0.0
  0
MTEXT
  5
40B
330
403
100
AcDbEntity
  8
FORMAT
100
AcDbMText
 10
418.9851499564
 20
1007.1597389082
 30
0.0
 40
17.5
 41
0.0
 71
     1
 72
     1
  1
420
  7
SLDTEXTSTYLE1
 73
     1
 44
1.0
  0
ENDBLK
  5
405
330
403
100
AcDbEntity
  8
0
100
AcDbBlockEnd
  0
BLOCK
  5
40E
330
40D
100
AcDbEntity
  8
0
100
AcDbBlockBegin
  2
_D_1
 70
     0
 10
0.0
 20
0.0
 30
0.0
  3
_D_1
  1

  0
INSERT
  5
410
330
40D
100
AcDbEntity
  8
FORMAT
100
AcDbBlockReference
  2
_OBLIQUE
 10
183.4817257873
 20
794.6010543353
 30
-37.9
 41
16.51
 42
16.51
 50
90.0
  0
INSERT
  5
411
330
40D
100
AcDbEntity
  8
FORMAT
100
AcDbBlockReference
  2
_OBLIQUE
 10
183.4817257873
 20
709.6010543353
 30
-37.9
 41
16.51
 42
16.51
 50
270.0
  0
LINE
  5
412
330
40D
100
AcDbEntity
  8
FORMAT
100
AcDbLine
 10
275.4817257873
 20
794.6010543353
 30
0.0
 11
178.4817257873
 21
794.6010543353
 31
0.0
  0
LINE
  5
413
330
40D
100
AcDbEntity
  8
FORMAT
100
AcDbLine
 10
277.2817257873
 20
709.6010543353
 30
0.0
 11
178.4817257873
 21
709.6010543353
 31
0.0
  0
LINE
  5
414
330
40D
100
AcDbEntity
  8
FORMAT
100
AcDbLine
 10
183.4817257873
 20
794.6010543353
 30
0.0
 11
183.4817257873
 21
709.6010543353
 31
0.0
  0
MTEXT
  5
415
330
40D
100
AcDbEntity
  8
FORMAT
100
AcDbMText
 10
160.9230412144
 20
738.5659939394
 30
0.0
 40
17.5
 41
0.0
 71
     1
 72
     1
  1
85
  7
SLDTEXTSTYLE1
 11
-7.044195017643634E-15
 21
1.0
 31
0.0
 73
     1
 44
1.0
  0
ENDBLK
  5
40F
330
40D
100
AcDbEntity
  8
0
100
AcDbBlockEnd
  0
BLOCK
  5
418
330
417
100
AcDbEntity
  8
0
100
AcDbBlockBegin
  2
_D_2
 70
     0
 10
0.0
 20
0.0
 30
0.0
  3
_D_2
  1

  0
INSERT
  5
41A
330
417
100
AcDbEntity
  8
FORMAT
100
AcDbBlockReference
  2
_OBLIQUE
 10
153.4817257873
 20
874.6010543353
 30
-37.9
 41
16.51
 42
16.51
 50
90.0
  0
INSERT
  5
41B
330
417
100
AcDbEntity
  8
FORMAT
100
AcDbBlockReference
  2
_OBLIQUE
 10
153.4817257873
 20
709.6010543353
 30
-37.9
 41
16.51
 42
16.51
 50
270.0
  0
LINE
  5
41C
330
417
100
AcDbEntity
  8
FORMAT
100
AcDbLine
 10
233.4817257873
 20
874.6010543353
 30
0.0
 11
148.4817257873
 21
874.6010543353
 31
0.0
  0
LINE
  5
41D
330
417
100
AcDbEntity
  8
FORMAT
100
AcDbLine
 10
233.4817257873
 20
709.6010543353
 30
0.0
 11
148.4817257873
 21
709.6010543353
 31
0.0
  0
LINE
  5
41E
330
417
100
AcDbEntity
  8
FORMAT
100
AcDbLine
 10
153.4817257873
 20
874.6010543353
 30
0.0
 11
153.4817257873
 21
709.6010543353
 31
0.0
  0
MTEXT
  5
41F
330
417
100
AcDbEntity
  8
FORMAT
100
AcDbMText
 10
130.9230412144
 20
756.8354298559
 30
0.0
 40
17.5
 41
0.0
 71
     1
 72
     1
  1
165
  7
SLDTEXTSTYLE1
 11
-7.044195017643634E-15
 21
1.0
 31
0.0
 73
     1
 44
1.0
  0
ENDBLK
  5
419
330
417
100
AcDbEntity
  8
0
100
AcDbBlockEnd
  0
BLOCK
  5
422
330
421
100
AcDbEntity
  8
0
100
AcDbBlockBegin
  2
_D_3
 70
     0
 10
0.0
 20
0.0
 30
0.0
  3
_D_3
  1

  0
INSERT
  5
424
330
421
100
AcDbEntity
  8
FORMAT
100
AcDbBlockReference
  2
_OBLIQUE
 10
280.4817257873
 20
629.6010543353
 30
-37.9
 41
16.51
 42
16.51
 50
180.0
  0
INSERT
  5
425
330
421
100
AcDbEntity
  8
FORMAT
100
AcDbBlockReference
  2
_OBLIQUE
 10
606.4817257873
 20
629.6010543353
 30
-37.9
 41
16.51
 42
16.51
 50
0.0
  0
LINE
  5
426
330
421
100
AcDbEntity
  8
FORMAT
100
AcDbLine
 10
280.4817257873
 20
755.1010543353
 30
0.0
 11
280.4817257873
 21
624.6010543353
 31
0.0
  0
LINE
  5
427
330
421
100
AcDbEntity
  8
FORMAT
100
AcDbLine
 10
606.4817257873
 20
755.1010543353
 30
0.0
 11
606.4817257873
 21
624.6010543353
 31
0.0
  0
LINE
  5
428
330
421
100
AcDbEntity
  8
FORMAT
100
AcDbLine
 10
280.4817257873
 20
629.6010543353
 30
0.0
 11
606.4817257873
 21
629.6010543353
 31
0.0
  0
MTEXT
  5
429
330
421
100
AcDbEntity
  8
FORMAT
100
AcDbMText
 10
418.9851499564
 20
652.1597389082
 30
0.0
 40
17.5
 41
0.0
 71
     1
 72
     1
  1
326
  7
SLDTEXTSTYLE1
 73
     1
 44
1.0
  0
ENDBLK
  5
423
330
421
100
AcDbEntity
  8
0
100
AcDbBlockEnd
  0
BLOCK
  5
467
330
466
100
AcDbEntity
  8
0
100
AcDbBlockBegin
  2
_D_4
 70
     0
 10
0.0
 20
0.0
 30
0.0
  3
_D_4
  1

  0
INSERT
  5
469
330
466
100
AcDbEntity
  8
FORMAT
100
AcDbBlockReference
  2
_OBLIQUE
 10
280.4817257873
 20
1233.4278264884
 30
0.0
 41
16.51
 42
16.51
 50
180.0
  0
INSERT
  5
46A
330
466
100
AcDbEntity
  8
FORMAT
100
AcDbBlockReference
  2
_OBLIQUE
 10
282.0817257873
 20
1233.4278264884
 30
0.0
 41
16.51
 42
16.51
 50
0.0
  0
LINE
  5
46B
330
466
100
AcDbEntity
  8
FORMAT
100
AcDbLine
 10
280.4817257873
 20
1188.4278264884
 30
0.0
 11
280.4817257873
 21
1238.4278264884
 31
0.0
  0
LINE
  5
46C
330
466
100
AcDbEntity
  8
FORMAT
100
AcDbLine
 10
282.0817257873
 20
1188.4278264884
 30
0.0
 11
282.0817257873
 21
1238.4278264884
 31
0.0
  0
LINE
  5
46D
330
466
100
AcDbEntity
  8
FORMAT
100
AcDbLine
 10
280.4817257873
 20
1233.4278264884
 30
0.0
 11
282.0817257873
 21
1233.4278264884
 31
0.0
  0
LINE
  5
46E
330
466
100
AcDbEntity
  8
FORMAT
100
AcDbLine
 10
282.0817257873
 20
1233.4278264884
 30
0.0
 11
309.337333933
 21
1233.4278264884
 31
0.0
  0
MTEXT
  5
46F
330
466
100
AcDbEntity
  8
FORMAT
100
AcDbMText
 10
277.0109457602
 20
1255.9865110612
 30
0.0
 40
17.5
 41
0.0
 71
     1
 72
     1
  1
1.6
  7
SLDTEXTSTYLE1
 73
     1
 44
1.0
  0
ENDBLK
  5
468
330
466
100
AcDbEntity
  8
0
100
AcDbBlockEnd
  0
BLOCK
  5
472
330
471
100
AcDbEntity
  8
0
100
AcDbBlockBegin
  2
_D_5
 70
     0
 10
0.0
 20
0.0
 30
0.0
  3
_D_5
  1

  0
INSERT
  5
474
330
471
100
AcDbEntity
  8
FORMAT
100
AcDbBlockReference
  2
_OBLIQUE
 10
282.0817257873
 20
1233.4278264884
 30
0.0
 41
16.51
 42
16.51
 50
180.0
  0
INSERT
  5
475
330
471
100
AcDbEntity
  8
FORMAT
100
AcDbBlockReference
  2
_OBLIQUE
 10
604.8817257873
 20
1233.4278264884
 30
0.0
 41
16.51
 42
16.51
 50
0.0
  0
LINE
  5
476
330
471
100
AcDbEntity
  8
FORMAT
100
AcDbLine
 10
282.0817257873
 20
1188.4278264884
 30
0.0
 11
282.0817257873
 21
1238.4278264884
 31
0.0
  0
LINE
  5
477
330
471
100
AcDbEntity
  8
FORMAT
100
AcDbLine
 10
604.8817257873
 20
1188.4278264884
 30
0.0
 11
604.8817257873
 21
1238.4278264884
 31
0.0
  0
LINE
  5
478
330
471
100
AcDbEntity
  8
FORMAT
100
AcDbLine
 10
282.0817257873
 20
1233.4278264884
 30
0.0
 11
604.8817257873
 21
1233.4278264884
 31
0.0
  0
MTEXT
  5
479
330
471
100
AcDbEntity
  8
FORMAT
100
AcDbMText
 10
412.0001551359
 20
1255.9865110612
 30
0.0
 40
17.5
 41
0.0
 71
     1
 72
     1
  1
322.8
  7
SLDTEXTSTYLE1
 73
     1
 44
1.0
  0
ENDBLK
  5
473
330
471
100
AcDbEntity
  8
0
100
AcDbBlockEnd
  0
BLOCK
  5
47C
330
47B
100
AcDbEntity
  8
0
100
AcDbBlockBegin
  2
_D_6
 70
     0
 10
0.0
 20
0.0
 30
0.0
  3
_D_6
  1

  0
INSERT
  5
47E
330
47B
100
AcDbEntity
  8
FORMAT
100
AcDbBlockReference
  2
_OBLIQUE
 10
604.8817257873
 20
1233.4278264884
 30
0.0
 41
16.51
 42
16.51
 50
180.0
  0
INSERT
  5
47F
330
47B
100
AcDbEntity
  8
FORMAT
100
AcDbBlockReference
  2
_OBLIQUE
 10
606.4817257873
 20
1233.4278264884
 30
0.0
 41
16.51
 42
16.51
 50
0.0
  0
LINE
  5
480
330
47B
100
AcDbEntity
  8
FORMAT
100
AcDbLine
 10
604.8817257873
 20
1188.4278264884
 30
0.0
 11
604.8817257873
 21
1238.4278264884
 31
0.0
  0
LINE
  5
481
330
47B
100
AcDbEntity
  8
FORMAT
100
AcDbLine
 10
606.4817257873
 20
1188.4278264884
 30
0.0
 11
606.4817257873
 21
1238.4278264884
 31
0.0
  0
LINE
  5
482
330
47B
100
AcDbEntity
  8
FORMAT
100
AcDbLine
 10
604.8817257873
 20
1233.4278264884
 30
0.0
 11
579.6064296492
 21
1233.4278264884
 31
0.0
  0
LINE
  5
483
330
47B
100
AcDbEntity
  8
FORMAT
100
AcDbLine
 10
604.8817257873
 20
1233.4278264884
 30
0.0
 11
606.4817257873
 21
1233.4278264884
 31
0.0
  0
MTEXT
  5
484
330
47B
100
AcDbEntity
  8
FORMAT
100
AcDbMText
 10
579.6064296492
 20
1255.9865110612
 30
0.0
 40
17.5
 41
0.0
 71
     1
 72
     1
  1
1.6
  7
SLDTEXTSTYLE1
 73
     1
 44
1.0
  0
ENDBLK
  5
47D
330
47B
100
AcDbEntity
  8
0
100
AcDbBlockEnd
  0
BLOCK
  5
487
330
486
100
AcDbEntity
  8
0
100
AcDbBlockBegin
  2
_D_7
 70
     0
 10
0.0
 20
0.0
 30
0.0
  3
_D_7
  1

  0
INSERT
  5
489
330
486
100
AcDbEntity
  8
FORMAT
100
AcDbBlockReference
  2
_OBLIQUE
 10
153.4817257873
 20
1181.8278264884
 30
0.0
 41
16.51
 42
16.51
 50
90.0
  0
INSERT
  5
48A
330
486
100
AcDbEntity
  8
FORMAT
100
AcDbBlockReference
  2
_OBLIQUE
 10
153.4817257873
 20
1106.0278264884
 30
0.0
 41
16.51
 42
16.51
 50
270.0
  0
LINE
  5
48B
330
486
100
AcDbEntity
  8
FORMAT
100
AcDbLine
 10
228.4817257873
 20
1181.8278264884
 30
0.0
 11
148.4817257873
 21
1181.8278264884
 31
0.0
  0
LINE
  5
48C
330
486
100
AcDbEntity
  8
FORMAT
100
AcDbLine
 10
275.4817257873
 20
1106.0278264884
 30
0.0
 11
148.4817257873
 21
1106.0278264884
 31
0.0
  0
LINE
  5
48D
330
486
100
AcDbEntity
  8
FORMAT
100
AcDbLine
 10
153.4817257873
 20
1181.8278264884
 30
0.0
 11
153.4817257873
 21
1106.0278264884
 31
0.0
  0
MTEXT
  5
48E
330
486
100
AcDbEntity
  8
FORMAT
100
AcDbMText
 10
130.9230412144
 20
1118.7555848704
 30
0.0
 40
17.5
 41
0.0
 71
     1
 72
     1
  1
75.8
  7
SLDTEXTSTYLE1
 11
-7.044195017643634E-15
 21
1.0
 31
0.0
 73
     1
 44
1.0
  0
ENDBLK
  5
488
330
486
100
AcDbEntity
  8
0
100
AcDbBlockEnd
  0
BLOCK
  5
491
330
490
100
AcDbEntity
  8
0
100
AcDbBlockBegin
  2
_D_8
 70
     0
 10
0.0
 20
0.0
 30
0.0
  3
_D_8
  1

  0
INSERT
  5
493
330
490
100
AcDbEntity
  8
FORMAT
100
AcDbBlockReference
  2
_OBLIQUE
 10
153.4817257873
 20
1104.4278264884
 30
0.0
 41
16.51
 42
16.51
 50
270.0
  0
INSERT
  5
494
330
490
100
AcDbEntity
  8
FORMAT
100
AcDbBlockReference
  2
_OBLIQUE
 10
153.4817257873
 20
1106.0278264884
 30
0.0
 41
16.51
 42
16.51
 50
90.0
  0
LINE
  5
495
330
490
100
AcDbEntity
  8
FORMAT
100
AcDbLine
 10
275.4817257873
 20
1104.4278264884
 30
0.0
 11
148.4817257873
 21
1104.4278264884
 31
0.0
  0
LINE
  5
496
330
490
100
AcDbEntity
  8
FORMAT
100
AcDbLine
 10
275.4817257873
 20
1106.0278264884
 30
0.0
 11
148.4817257873
 21
1106.0278264884
 31
0.0
  0
LINE
  5
497
330
490
100
AcDbEntity
  8
FORMAT
100
AcDbLine
 10
153.4817257873
 20
1104.4278264884
 30
0.0
 11
153.4817257873
 21
1067.9242092131
 31
0.0
  0
LINE
  5
498
330
490
100
AcDbEntity
  8
FORMAT
100
AcDbLine
 10
153.4817257873
 20
1104.4278264884
 30
0.0
 11
153.4817257873
 21
1106.0278264884
 31
0.0
  0
MTEXT
  5
499
330
490
100
AcDbEntity
  8
FORMAT
100
AcDbMText
 10
130.9230412144
 20
1067.9242092131
 30
0.0
 40
17.5
 41
0.0
 71
     1
 72
     1
  1
1.6
  7
SLDTEXTSTYLE1
 11
6.123233995736766E-17
 21
1.0
 31
0.0
 73
     1
 44
1.0
  0
ENDBLK
  5
492
330
490
100
AcDbEntity
  8
0
100
AcDbBlockEnd
  0
BLOCK
  5
4C4
330
4C3
100
AcDbEntity
  8
0
100
AcDbBlockBegin
  2
_D_9
 70
     0
 10
0.0
 20
0.0
 30
0.0
  3
_D_9
  1

  0
INSERT
  5
4C6
330
4C3
100
AcDbEntity
  8
FORMAT
100
AcDbBlockReference
  2
_OBLIQUE
 10
782.8382154181
 20
629.6010543353
 30
0.0
 41
16.51
 42
16.51
 50
180.0
  0
INSERT
  5
4C7
330
4C3
100
AcDbEntity
  8
FORMAT
100
AcDbBlockReference
  2
_OBLIQUE
 10
861.8382154181
 20
629.6010543353
 30
0.0
 41
16.51
 42
16.51
 50
0.0
  0
LINE
  5
4C8
330
4C3
100
AcDbEntity
  8
FORMAT
100
AcDbLine
 10
782.8382154181
 20
706.4010543353
 30
0.0
 11
782.8382154181
 21
624.6010543353
 31
0.0
  0
LINE
  5
4C9
330
4C3
100
AcDbEntity
  8
FORMAT
100
AcDbLine
 10
861.8382154181
 20
704.6010543353
 30
0.0
 11
861.8382154181
 21
624.6010543353
 31
0.0
  0
LINE
  5
4CA
330
4C3
100
AcDbEntity
  8
FORMAT
100
AcDbLine
 10
782.8382154181
 20
629.6010543353
 30
0.0
 11
861.8382154181
 21
629.6010543353
 31
0.0
  0
MTEXT
  5
4CB
330
4C3
100
AcDbEntity
  8
FORMAT
100
AcDbMText
 10
809.9333838152
 20
652.1597389082
 30
0.0
 40
17.5
 41
0.0
 71
     1
 72
     1
  1
79
  7
SLDTEXTSTYLE1
 73
     1
 44
1.0
  0
ENDBLK
  5
4C5
330
4C3
100
AcDbEntity
  8
0
100
AcDbBlockEnd
  0
BLOCK
  5
504
330
503
100
AcDbEntity
  8
0
100
AcDbBlockBegin
  2
_D_10
 70
     0
 10
0.0
 20
0.0
 30
0.0
  3
_D_10
  1

  0
INSERT
  5
506
330
503
100
AcDbEntity
  8
FORMAT
100
AcDbBlockReference
  2
_OBLIQUE
 10
244.3749524088
 20
268.5706019663
 30
-10.0
 41
16.51
 42
16.51
 50
180.0
  0
INSERT
  5
507
330
503
100
AcDbEntity
  8
FORMAT
100
AcDbBlockReference
  2
_OBLIQUE
 10
659.3749524088
 20
268.5706019663
 30
-10.0
 41
16.51
 42
16.51
 50
0.0
  0
LINE
  5
508
330
503
100
AcDbEntity
  8
FORMAT
100
AcDbLine
 10
244.3749524088
 20
188.5706019663
 30
0.0
 11
244.3749524088
 21
273.5706019663
 31
0.0
  0
LINE
  5
509
330
503
100
AcDbEntity
  8
FORMAT
100
AcDbLine
 10
659.3749524088
 20
188.5706019663
 30
0.0
 11
659.3749524088
 21
273.5706019663
 31
0.0
  0
LINE
  5
50A
330
503
100
AcDbEntity
  8
FORMAT
100
AcDbLine
 10
244.3749524088
 20
268.5706019663
 30
0.0
 11
659.3749524088
 21
268.5706019663
 31
0.0
  0
MTEXT
  5
50B
330
503
100
AcDbEntity
  8
FORMAT
100
AcDbMText
 10
439.4522366001
 20
291.1292865392
 30
0.0
 40
17.5
 41
0.0
 71
     1
 72
     1
  1
415
  7
SLDTEXTSTYLE1
 73
     1
 44
1.0
  0
ENDBLK
  5
505
330
503
100
AcDbEntity
  8
0
100
AcDbBlockEnd
  0
BLOCK
  5
50E
330
50D
100
AcDbEntity
  8
0
100
AcDbBlockBegin
  2
_D_11
 70
     0
 10
0.0
 20
0.0
 30
0.0
  3
_D_11
  1

  0
INSERT
  5
510
330
50D
100
AcDbEntity
  8
FORMAT
100
AcDbBlockReference
  2
_OBLIQUE
 10
164.3749524088
 20
188.5706019663
 30
-10.0
 41
16.51
 42
16.51
 50
90.0
  0
INSERT
  5
511
330
50D
100
AcDbEntity
  8
FORMAT
100
AcDbBlockReference
  2
_OBLIQUE
 10
164.3749524088
 20
159.1706019663
 30
-10.0
 41
16.51
 42
16.51
 50
270.0
  0
LINE
  5
512
330
50D
100
AcDbEntity
  8
FORMAT
100
AcDbLine
 10
244.3749524088
 20
188.5706019663
 30
0.0
 11
159.3749524088
 21
188.5706019663
 31
0.0
  0
LINE
  5
513
330
50D
100
AcDbEntity
  8
FORMAT
100
AcDbLine
 10
239.3749524088
 20
159.1706019663
 30
0.0
 11
159.3749524088
 21
159.1706019663
 31
0.0
  0
LINE
  5
514
330
50D
100
AcDbEntity
  8
FORMAT
100
AcDbLine
 10
164.3749524088
 20
188.5706019663
 30
0.0
 11
164.3749524088
 21
159.1706019663
 31
0.0
  0
MTEXT
  5
515
330
50D
100
AcDbEntity
  8
FORMAT
100
AcDbMText
 10
141.8162678359
 20
154.82923547
 30
0.0
 40
17.5
 41
0.0
 71
     1
 72
     1
  1
29.4
  7
SLDTEXTSTYLE1
 11
-7.044195017643634E-15
 21
1.0
 31
0.0
 73
     1
 44
1.0
  0
ENDBLK
  5
50F
330
50D
100
AcDbEntity
  8
0
100
AcDbBlockEnd
  0
BLOCK
  5
55F
330
55E
100
AcDbEntity
  8
0
100
AcDbBlockBegin
  2
_D_12
 70
     0
 10
0.0
 20
0.0
 30
0.0
  3
_D_12
  1

  0
INSERT
  5
561
330
55E
100
AcDbEntity
  8
FORMAT
100
AcDbBlockReference
  2
_OBLIQUE
 10
826.8377097405
 20
79.1706019663
 30
0.0
 41
16.51
 42
16.51
 50
180.0
  0
INSERT
  5
562
330
55E
100
AcDbEntity
  8
FORMAT
100
AcDbBlockReference
  2
_OBLIQUE
 10
846.8377097405
 20
79.1706019663
 30
0.0
 41
16.51
 42
16.51
 50
0.0
  0
LINE
  5
563
330
55E
100
AcDbEntity
  8
FORMAT
100
AcDbLine
 10
826.8377097405
 20
156.1706019663
 30
0.0
 11
826.8377097405
 21
74.1706019663
 31
0.0
  0
LINE
  5
564
330
55E
100
AcDbEntity
  8
FORMAT
100
AcDbLine
 10
846.8377097405
 20
160.3706019663
 30
0.0
 11
846.8377097405
 21
74.1706019663
 31
0.0
  0
LINE
  5
565
330
55E
100
AcDbEntity
  8
FORMAT
100
AcDbLine
 10
826.8377097405
 20
79.1706019663
 30
0.0
 11
846.8377097405
 21
79.1706019663
 31
0.0
  0
LINE
  5
566
330
55E
100
AcDbEntity
  8
FORMAT
100
AcDbLine
 10
846.8377097405
 20
79.1706019663
 30
0.0
 11
880.8411447262
 21
79.1706019663
 31
0.0
  0
MTEXT
  5
567
330
55E
100
AcDbEntity
  8
FORMAT
100
AcDbMText
 10
854.980032791
 20
101.7292865391
 30
0.0
 40
17.5
 41
0.0
 71
     1
 72
     1
  1
20
  7
SLDTEXTSTYLE1
 73
     1
 44
1.0
  0
ENDBLK
  5
560
330
55E
100
AcDbEntity
  8
0
100
AcDbBlockEnd
  0
BLOCK
  5
5A1
330
5A0
100
AcDbEntity
  8
0
100
AcDbBlockBegin
  2
_D_13
 70
     0
 10
0.0
 20
0.0
 30
0.0
  3
_D_13
  1

  0
INSERT
  5
5A3
330
5A0
100
AcDbEntity
  8
FORMAT
100
AcDbBlockReference
  2
_OBLIQUE
 10
1041.3059787234
 20
629.6010543353
 30
37.9
 41
16.51
 42
16.51
 50
180.0
  0
INSERT
  5
5A4
330
5A0
100
AcDbEntity
  8
FORMAT
100
AcDbBlockReference
  2
_OBLIQUE
 10
1321.3059787234
 20
629.6010543353
 30
37.9
 41
16.51
 42
16.51
 50
0.0
  0
LINE
  5
5A5
330
5A0
100
AcDbEntity
  8
FORMAT
100
AcDbLine
 10
1041.3059787234
 20
707.6010543353
 30
0.0
 11
1041.3059787234
 21
624.6010543353
 31
0.0
  0
LINE
  5
5A6
330
5A0
100
AcDbEntity
  8
FORMAT
100
AcDbLine
 10
1321.3059787234
 20
707.6010543353
 30
0.0
 11
1321.3059787234
 21
624.6010543353
 31
0.0
  0
LINE
  5
5A7
330
5A0
100
AcDbEntity
  8
FORMAT
100
AcDbLine
 10
1041.3059787234
 20
629.6010543353
 30
0.0
 11
1321.3059787234
 21
629.6010543353
 31
0.0
  0
MTEXT
  5
5A8
330
5A0
100
AcDbEntity
  8
FORMAT
100
AcDbMText
 10
1160.2580394616
 20
652.1597389082
 30
0.0
 40
17.5
 41
0.0
 71
     1
 72
     1
  1
280
  7
SLDTEXTSTYLE1
 73
     1
 44
1.0
  0
ENDBLK
  5
5A2
330
5A0
100
AcDbEntity
  8
0
100
AcDbBlockEnd
  0
BLOCK
  5
5AB
330
5AA
100
AcDbEntity
  8
0
100
AcDbBlockBegin
  2
_D_14
 70
     0
 10
0.0
 20
0.0
 30
0.0
  3
_D_14
  1

  0
INSERT
  5
5AD
330
5AA
100
AcDbEntity
  8
FORMAT
100
AcDbBlockReference
  2
_OBLIQUE
 10
1501.3059787234
 20
789.6010543353
 30
37.9
 41
16.51
 42
16.51
 50
90.0
  0
INSERT
  5
5AE
330
5AA
100
AcDbEntity
  8
FORMAT
100
AcDbBlockReference
  2
_OBLIQUE
 10
1501.3059787234
 20
709.6010543353
 30
37.9
 41
16.51
 42
16.51
 50
270.0
  0
LINE
  5
5AF
330
5AA
100
AcDbEntity
  8
FORMAT
100
AcDbLine
 10
1326.3059787234
 20
789.6010543353
 30
0.0
 11
1506.3059787234
 21
789.6010543353
 31
0.0
  0
LINE
  5
5B0
330
5AA
100
AcDbEntity
  8
FORMAT
100
AcDbLine
 10
1391.3059787234
 20
709.6010543353
 30
0.0
 11
1506.3059787234
 21
709.6010543353
 31
0.0
  0
LINE
  5
5B1
330
5AA
100
AcDbEntity
  8
FORMAT
100
AcDbLine
 10
1501.3059787234
 20
789.6010543353
 30
0.0
 11
1501.3059787234
 21
709.6010543353
 31
0.0
  0
MTEXT
  5
5B2
330
5AA
100
AcDbEntity
  8
FORMAT
100
AcDbMText
 10
1478.7472941505
 20
735.2579951348
 30
0.0
 40
17.5
 41
0.0
 71
     1
 72
     1
  1
80
  7
SLDTEXTSTYLE1
 11
-7.044195017643634E-15
 21
1.0
 31
0.0
 73
     1
 44
1.0
  0
ENDBLK
  5
5AC
330
5AA
100
AcDbEntity
  8
0
100
AcDbBlockEnd
  0
ENDSEC
  0
SECTION
  2
ENTITIES
  0
LINE
  5
384
330
1F
100
AcDbEntity
  8
FORMAT
100
AcDbLine
 10
133.3292984585
 20
583.4483614201
 30
0.0
 11
1551.6184291228
 21
583.4483614201
 31
0.0
  0
LINE
  5
385
330
1F
100
AcDbEntity
  8
FORMAT
100
AcDbLine
 10
1446.6031918069
 20
1375.6616489552
 30
0.0
 11
2036.040240706
 21
1375.6616489552
 31
0.0
  0
LINE
  5
386
330
1F
100
AcDbEntity
  8
FORMAT
100
AcDbLine
 10
1446.6031918069
 20
1375.6616489552
 30
0.0
 11
1446.6031918069
 21
1142.8839346661
 31
0.0
  0
LINE
  5
387
330
1F
100
AcDbEntity
  8
FORMAT
100
AcDbLine
 10
1446.6031918069
 20
1142.8839346661
 30
0.0
 11
2036.040240706
 21
1142.8839346661
 31
0.0
  0
LINE
  5
388
330
1F
100
AcDbEntity
  8
FORMAT
100
AcDbLine
 10
2036.040240706
 20
1375.6616489552
 30
0.0
 11
2036.040240706
 21
1142.8839346661
 31
0.0
  0
LINE
  5
389
330
1F
100
AcDbEntity
  8
AM_0
100
AcDbLine
 10
2061.1016555194
 20
1393.3292205268
 30
0.0
 11
2061.1016555194
 21
2.2405245821
 31
0.0
  0
LINE
  5
38A
330
1F
100
AcDbEntity
  8
AM_0
100
AcDbLine
 10
2061.1016555194
 20
1393.3292205268
 30
0.0
 11
87.1327328266
 21
1393.3292205268
 31
0.0
  0
LINE
  5
38B
330
1F
100
AcDbEntity
  8
AM_0
100
AcDbLine
 10
87.1327328266
 20
1393.3292205268
 30
0.0
 11
87.1327328266
 21
2.2405245821
 31
0.0
  0
LINE
  5
38C
330
1F
100
AcDbEntity
  8
AM_0
100
AcDbLine
 10
87.1327328266
 20
2.2405245821
 30
0.0
 11
2061.1016555194
 21
2.2405245821
 31
0.0
  0
INSERT
  5
38D
330
1F
100
AcDbEntity
  8
FORMAT
100
AcDbBlockReference
  2
面材表記1
 10
-1210.2372720224
 20
647.253402645
 30
0.0
  0
INSERT
  5
38E
330
1F
100
AcDbEntity
  8
0
  6
Continuous
 62
     7
100
AcDbBlockReference
 66
     1
  2
ﾌﾞﾛｯｸ10
 10
1477.6734563246
 20
2.2405058102
 30
0.0
  0
ATTRIB
  5
38F
330
38E
100
AcDbEntity
  8
SLD-0
 62
   179
100
AcDbText
 10
1690.3253228929
 20
55.7487607814
 30
0.0
 40
11.664
  1

 41
0.7
  7
SLDTEXTSTYLE0
 11
1690.3253228929
 21
49.7153492329
 31
0.0
100
AcDbAttribute
  2
GEN-TITLE-SCA
 70
     0
 74
     1
  0
ATTRIB
  5
390
330
38E
100
AcDbEntity
  8
SLD-0
 62
   179
100
AcDbText
 10
1623.9412789179
 20
11.9348268342
 30
0.0
 40
7.2
  1

 41
0.7
  7
SLDTEXTSTYLE0
 11
1623.9412789179
 21
8.2104987178
 31
0.0
100
AcDbAttribute
  2
GEN-TITLE-DGND
 70
     0
 74
     1
  0
ATTRIB
  5
391
330
38E
100
AcDbEntity
  8
SLD-0
 62
   179
100
AcDbText
 10
1582.6778126261
 20
11.9348268342
 30
0.0
 40
7.2
  1

 41
0.7
  7
SLDTEXTSTYLE0
 11
1582.6778126261
 21
8.2104987178
 31
0.0
100
AcDbAttribute
  2
GEN-TITLE-DWGD
 70
     0
 74
     1
  0
ATTRIB
  5
392
330
38E
100
AcDbEntity
  8
SLD-0
 62
   179
100
AcDbText
 10
1541.4029881105
 20
11.9348268342
 30
0.0
 40
7.2
  1

 41
0.7
  7
SLDTEXTSTYLE0
 11
1541.4029881105
 21
8.2104987178
 31
0.0
100
AcDbAttribute
  2
GEN-TITLE-CHKD
 70
     0
 74
     1
  0
ATTRIB
  5
393
330
38E
100
AcDbEntity
  8
SLD-0
 62
   179
100
AcDbText
 10
1499.7687101763
 20
11.9348268342
 30
0.0
 40
7.2
  1

 41
0.7
  7
SLDTEXTSTYLE0
 11
1499.7687101763
 21
8.2104987178
 31
0.0
100
AcDbAttribute
  2
GEN-TITLE-APPD
 70
     0
 74
     1
  0
ATTRIB
  5
394
330
38E
100
AcDbEntity
  8
SLD-0
 62
   179
100
AcDbText
 10
1972.3344524976
 20
64.8731345164
 30
0.0
 40
11.664
  1

 41
0.7
  7
SLDTEXTSTYLE0
 11
1972.3344524976
 21
58.8397229678
 31
0.0
100
AcDbAttribute
  2
GEN-TITLE-NR
 70
     0
 74
     1
  0
ATTRIB
  5
395
330
38E
100
AcDbEntity
  8
SLD-0
 62
   179
100
AcDbText
 10
1780.751378508
 20
55.7487607814
 30
0.0
 40
11.664
  1

 41
0.7
  7
SLDTEXTSTYLE0
 11
1780.751378508
 21
49.7153492329
 31
0.0
100
AcDbAttribute
  2
GEN-TITLE-DAT
 70
     0
 74
     1
  0
ATTRIB
  5
396
330
38E
100
AcDbEntity
  8
SLD-0
 62
   179
100
AcDbText
 10
1595.3386806615
 20
69.8529291349
 30
0.0
 40
11.664
  1

 41
0.7
  7
SLDTEXTSTYLE0
 11
1595.3386806615
 21
63.8195175864
 31
0.0
100
AcDbAttribute
  2
GEN-TITLE-UNIT
 70
     0
 74
     1
  0
ATTRIB
  5
397
330
38E
100
AcDbEntity
  8
SLD-0
 62
   179
100
AcDbText
 10
1596.873784813
 20
121.685280916
 30
0.0
 40
11.664
  1

 41
0.7
  7
SLDTEXTSTYLE0
 11
1596.873784813
 21
115.6518693674
 31
0.0
100
AcDbAttribute
  2
GEN-TITLE-DESK1
 70
     0
 74
     1
  0
SEQEND
  5
398
330
38E
100
AcDbEntity
  8
0
  6
Continuous
 62
     7
  0
MTEXT
  5
39A
330
1F
100
AcDbEntity
  8
FORMAT
100
AcDbMText
 10
143.8221896841
 20
492.4401835917
 30
0.0
 40
17.5
 41
0.0
 71
     1
 72
     1
  1
押え金具
  7
SLDTEXTSTYLE1
 73
     1
 44
1.0
  0
MTEXT
  5
39B
330
1F
100
AcDbEntity
  8
FORMAT
100
AcDbMText
 10
143.8221896841
 20
1312.6345143951
 30
0.0
 40
17.5
 41
0.0
 71
     1
 72
     1
  1
カメラスタンドアタッチメント（本体）
  7
SLDTEXTSTYLE1
 73
     1
 44
1.0
  0
INSERT
  5
3A5
330
1F
100
AcDbEntity
  8
FORMAT
100
AcDbBlockReference
  2
SW_NOTE_9
 10
1470.6932304901
 20
1336.7340987456
 30
0.0
  0
MTEXT
  5
3A6
330
1F
100
AcDbEntity
  8
FORMAT
100
AcDbMText
 10
1791.973714378
 20
106.3939405738
 30
0.0
 40
7.9375
 41
0.0
 71
     2
 72
     1
  1
取付穴追加
  7
SLDTEXTSTYLE0
 73
     1
 44
1.0
  0
MTEXT
  5
3A7
330
1F
100
AcDbEntity
  8
FORMAT
100
AcDbMText
 10
1715.7763557753
 20
106.3939405738
 30
0.0
 40
7.9375
 41
0.0
 71
     2
 72
     1
  1
19.01.31
  7
SLDTEXTSTYLE0
 73
     1
 44
1.0
  0
MTEXT
  5
3A8
330
1F
100
AcDbEntity
  8
FORMAT
100
AcDbMText
 10
1673.7304951059
 20
106.3939405738
 30
0.0
 40
7.9375
 41
0.0
 71
     2
 72
     1
  1
1
  7
SLDTEXTSTYLE0
 73
     1
 44
1.0
  0
MTEXT
  5
3A9
330
1F
100
AcDbEntity
  8
FORMAT
100
AcDbMText
 10
403.8703223941
 20
857.1158325312
 30
0.0
 40
7.9375
 41
0.0
 71
     2
 72
     1
  1
1
  7
SLDTEXTSTYLE0
 73
     1
 44
1.0
  0
MTEXT
  5
3AA
330
1F
100
AcDbEntity
  8
AM_0
100
AcDbMText
 10
1589.6489887705
 20
134.5108024999
 30
0.0
 40
10.5833333333
 41
0.0
 71
     2
 72
     1
  1
QP-CSR01
  7
SLDTEXTSTYLE0
 73
     1
 44
1.0
  0
MTEXT
  5
3AB
330
1F
100
AcDbEntity
  8
AM_0
100
AcDbMText
 10
1584.1067820476
 20
82.6596521362
 30
0.0
 40
10.5833333333
 41
0.0
 71
     2
 72
     1
  1
ｶﾒﾗｽﾀﾝﾄﾞｱﾀｯﾁﾒﾝﾄ
  7
SLDTEXTSTYLE0
 73
     1
 44
1.0
  0
MTEXT
  5
3AC
330
1F
100
AcDbEntity
  8
AM_0
100
AcDbMText
 10
1580.438169993
 20
22.346506463
 30
0.0
 40
7.9375
 41
0.0
 71
     2
 72
     1
  1
Y.T
  7
SLDTEXTSTYLE0
 73
     1
 44
1.0
  0
MTEXT
  5
3AD
330
1F
100
AcDbEntity
  8
AM_0
100
AcDbMText
 10
1621.8817636561
 20
22.346506463
 30
0.0
 40
7.9375
 41
0.0
 71
     2
 72
     1
  1
Y.T
  7
SLDTEXTSTYLE0
 73
     1
 44
1.0
  0
MTEXT
  5
3AE
330
1F
100
AcDbEntity
  8
AM_0
100
AcDbMText
 10
1776.9540736147
 20
67.4174348716
 30
0.0
 40
7.9375
 41
0.0
 71
     2
 72
     1
  1
2019/01/31
  7
SLDTEXTSTYLE0
 73
     1
 44
1.0
  0
MTEXT
  5
3AF
330
1F
100
AcDbEntity
  8
AM_0
100
AcDbMText
 10
1684.8593084716
 20
67.4174348716
 30
0.0
 40
7.9375
 41
0.0
 71
     2
 72
     1
  1
1:5
  7
SLDTEXTSTYLE0
 73
     1
 44
1.0
  0
MTEXT
  5
3B0
330
1F
100
AcDbEntity
  8
AM_0
100
AcDbMText
 10
1970.6173994472
 20
77.9482330626
 30
0.0
 40
10.5833333333
 41
0.0
 71
     2
 72
     1
  1
SA-1
  7
SLDTEXTSTYLE0
 73
     1
 44
1.0
  0
MTEXT
  5
3B2
330
1F
100
AcDbEntity
  8
CSLAYER1
100
AcDbMText
 10
1653.513313973
 20
18.9579421862
 30
0.0
 40
7.9375
 41
0.0
 71
     1
 72
     1
  1
HAYAMI INDUSTRY CO.,LTD.
  7
SLDTEXTSTYLE2
 73
     1
 44
1.0
  0
LINE
  5
3B3
330
1F
100
AcDbEntity
  8
0
  6
Continuous
 62
     7
370
    25
100
AcDbLine
 10
604.6817257873
 20
711.4010543353
 30
0.0
 11
282.2817257873
 21
711.4010543353
 31
0.0
  0
ARC
  5
3B4
330
1F
100
AcDbEntity
  8
0
  6
Continuous
 62
     7
370
    25
100
AcDbCircle
 10
281.4817257873
 20
712.4010543353
 30
0.0
 40
1.0
100
AcDbArc
 50
180.0
 51
270.0
  0
LINE
  5
3B5
330
1F
100
AcDbEntity
  8
0
  6
Continuous
 62
     7
370
    25
100
AcDbLine
 10
282.2817257873
 20
754.1010543353
 30
0.0
 11
280.4817257873
 21
754.1010543353
 31
0.0
  0
LINE
  5
3B6
330
1F
100
AcDbEntity
  8
0
  6
Continuous
 62
     7
370
    25
100
AcDbLine
 10
282.2817257873
 20
754.1010543353
 30
0.0
 11
282.2817257873
 21
760.1010543353
 31
0.0
  0
LINE
  5
3B7
330
1F
100
AcDbEntity
  8
0
  6
Continuous
 62
     7
370
    25
100
AcDbLine
 10
280.4817257873
 20
794.6010543353
 30
0.0
 11
280.4817257873
 21
760.1010543353
 31
0.0
  0
LINE
  5
3B8
330
1F
100
AcDbEntity
  8
0
  6
Continuous
 62
     7
370
    25
100
AcDbLine
 10
606.4817257873
 20
794.6010543353
 30
0.0
 11
280.4817257873
 21
794.6010543353
 31
0.0
  0
LINE
  5
3B9
330
1F
100
AcDbEntity
  8
0
  6
Continuous
 62
     7
370
    25
100
AcDbLine
 10
606.4817257873
 20
760.1010543353
 30
0.0
 11
606.4817257873
 21
794.6010543353
 31
0.0
  0
ARC
  5
3BA
330
1F
100
AcDbEntity
  8
0
  6
Continuous
 62
     7
370
    25
100
AcDbCircle
 10
605.4817257873
 20
712.4010543353
 30
0.0
 40
1.000000000000114
100
AcDbArc
 50
270.0
 51
0.0
  0
LINE
  5
3BB
330
1F
100
AcDbEntity
  8
0
  6
Continuous
 62
     7
370
    25
100
AcDbLine
 10
604.6817257873
 20
711.4010543353
 30
0.0
 11
605.4817257873
 21
711.4010543353
 31
0.0
  0
LINE
  5
3BC
330
1F
100
AcDbEntity
  8
0
  6
Continuous
 62
     7
370
    25
100
AcDbLine
 10
280.4817257873
 20
754.1010543353
 30
0.0
 11
280.4817257873
 21
712.4010543353
 31
0.0
  0
LINE
  5
3BD
330
1F
100
AcDbEntity
  8
0
  6
Continuous
 62
     7
370
    25
100
AcDbLine
 10
281.4817257873
 20
711.4010543353
 30
0.0
 11
282.2817257873
 21
711.4010543353
 31
0.0
  0
LINE
  5
3BE
330
1F
100
AcDbEntity
  8
0
  6
Continuous
 62
     7
370
    25
100
AcDbLine
 10
280.4817257873
 20
760.1010543353
 30
0.0
 11
282.2817257873
 21
760.1010543353
 31
0.0
  0
LINE
  5
3BF
330
1F
100
AcDbEntity
  8
0
  6
Continuous
 62
     7
370
    25
100
AcDbLine
 10
606.4817257873
 20
712.4010543353
 30
0.0
 11
606.4817257873
 21
754.1010543353
 31
0.0
  0
LINE
  5
3C0
330
1F
100
AcDbEntity
  8
0
  6
Continuous
 62
     7
370
    25
100
AcDbLine
 10
606.4817257873
 20
754.1010543353
 30
0.0
 11
604.6817257873
 21
754.1010543353
 31
0.0
  0
LINE
  5
3C1
330
1F
100
AcDbEntity
  8
0
  6
Continuous
 62
     7
370
    25
100
AcDbLine
 10
604.6817257873
 20
760.1010543353
 30
0.0
 11
604.6817257873
 21
754.1010543353
 31
0.0
  0
LINE
  5
3C2
330
1F
100
AcDbEntity
  8
0
  6
Continuous
 62
     7
370
    25
100
AcDbLine
 10
604.6817257873
 20
760.1010543353
 30
0.0
 11
606.4817257873
 21
760.1010543353
 31
0.0
  0
LINE
  5
3C3
330
1F
100
AcDbEntity
  8
0
  6
Continuous
 62
     7
370
    25
100
AcDbLine
 10
282.2817257873
 20
709.6010543353
 30
0.0
 11
604.6817257873
 21
709.6010543353
 31
0.0
  0
LINE
  5
3C4
330
1F
100
AcDbEntity
  8
0
  6
Continuous
 62
     7
370
    25
100
AcDbLine
 10
282.2817257873
 20
709.6010543353
 30
0.0
 11
282.2817257873
 21
711.4010543353
 31
0.0
  0
LINE
  5
3C5
330
1F
100
AcDbEntity
  8
0
  6
Continuous
 62
     7
370
    25
100
AcDbLine
 10
604.6817257873
 20
711.4010543353
 30
0.0
 11
604.6817257873
 21
709.6010543353
 31
0.0
  0
LINE
  5
3C6
330
1F
100
AcDbEntity
  8
0
  6
Continuous
 62
     7
370
    25
100
AcDbLine
 10
604.8817257873
 20
759.6010543353
 30
0.0
 11
604.8817257873
 21
754.6010543353
 31
0.0
  0
LINE
  5
3C7
330
1F
100
AcDbEntity
  8
0
  6
Continuous
 62
     7
370
    25
100
AcDbLine
 10
606.4817257873
 20
759.6010543353
 30
0.0
 11
606.4817257873
 21
754.6010543353
 31
0.0
  0
LINE
  5
3C8
330
1F
100
AcDbEntity
  8
0
  6
Continuous
 62
     7
370
    25
100
AcDbLine
 10
606.4817257873
 20
754.6010543353
 30
0.0
 11
604.8817257873
 21
754.6010543353
 31
0.0
  0
LINE
  5
3C9
330
1F
100
AcDbEntity
  8
0
  6
Continuous
 62
     7
370
    25
100
AcDbLine
 10
606.4817257873
 20
759.6010543353
 30
0.0
 11
604.8817257873
 21
759.6010543353
 31
0.0
  0
LINE
  5
3CA
330
1F
100
AcDbEntity
  8
0
  6
Continuous
 62
     7
370
    25
100
AcDbLine
 10
282.0817257873
 20
754.6010543353
 30
0.0
 11
282.0817257873
 21
759.6010543353
 31
0.0
  0
LINE
  5
3CB
330
1F
100
AcDbEntity
  8
0
  6
Continuous
 62
     7
370
    25
100
AcDbLine
 10
280.4817257873
 20
754.6010543353
 30
0.0
 11
282.0817257873
 21
754.6010543353
 31
0.0
  0
LINE
  5
3CC
330
1F
100
AcDbEntity
  8
0
  6
Continuous
 62
     7
370
    25
100
AcDbLine
 10
280.4817257873
 20
754.6010543353
 30
0.0
 11
280.4817257873
 21
759.6010543353
 31
0.0
  0
LINE
  5
3CD
330
1F
100
AcDbEntity
  8
0
  6
Continuous
 62
     7
370
    25
100
AcDbLine
 10
280.4817257873
 20
759.6010543353
 30
0.0
 11
282.0817257873
 21
759.6010543353
 31
0.0
  0
ARC
  5
3CE
330
1F
100
AcDbEntity
  8
0
  6
Continuous
 62
     7
370
    25
100
AcDbCircle
 10
604.6817257873
 20
711.4010543353
 30
0.0
 40
1.800000000000068
100
AcDbArc
 50
270.0
 51
0.0
  0
ARC
  5
3CF
330
1F
100
AcDbEntity
  8
0
  6
Continuous
 62
     7
370
    25
100
AcDbCircle
 10
604.6817257873
 20
711.4010543353
 30
0.0
 40
0.2000000000000455
100
AcDbArc
 50
270.0
 51
0.0
  0
LINE
  5
3D0
330
1F
100
AcDbEntity
  8
0
  6
Continuous
 62
     7
370
    25
100
AcDbLine
 10
282.0817257873
 20
754.6010543353
 30
0.0
 11
282.0817257873
 21
754.1010543353
 31
0.0
  0
LINE
  5
3D1
330
1F
100
AcDbEntity
  8
0
  6
Continuous
 62
     7
370
    25
100
AcDbLine
 10
280.4817257873
 20
754.6010543353
 30
0.0
 11
280.4817257873
 21
754.1010543353
 31
0.0
  0
LINE
  5
3D2
330
1F
100
AcDbEntity
  8
0
  6
Continuous
 62
     7
370
    25
100
AcDbLine
 10
280.4817257873
 20
712.4010543353
 30
0.0
 11
280.4817257873
 21
711.4010543353
 31
0.0
  0
ARC
  5
3D3
330
1F
100
AcDbEntity
  8
0
  6
Continuous
 62
     7
370
    25
100
AcDbCircle
 10
282.2817257873
 20
711.4010543353
 30
0.0
 40
0.1999999999999886
100
AcDbArc
 50
180.0
 51
270.0
  0
ARC
  5
3D4
330
1F
100
AcDbEntity
  8
0
  6
Continuous
 62
     7
370
    25
100
AcDbCircle
 10
282.2817257873
 20
711.4010543353
 30
0.0
 40
1.800000000000068
100
AcDbArc
 50
180.0
 51
270.0
  0
LINE
  5
3D5
330
1F
100
AcDbEntity
  8
0
  6
Continuous
 62
     7
370
    25
100
AcDbLine
 10
604.8817257873
 20
760.1010543353
 30
0.0
 11
604.8817257873
 21
759.6010543353
 31
0.0
  0
LINE
  5
3D6
330
1F
100
AcDbEntity
  8
0
  6
Continuous
 62
     7
370
    25
100
AcDbLine
 10
606.4817257873
 20
760.1010543353
 30
0.0
 11
606.4817257873
 21
759.6010543353
 31
0.0
  0
LINE
  5
3D7
330
1F
100
AcDbEntity
  8
0
  6
Continuous
 62
     7
370
    25
100
AcDbLine
 10
604.8817257873
 20
754.6010543353
 30
0.0
 11
604.8817257873
 21
754.1010543353
 31
0.0
  0
LINE
  5
3D8
330
1F
100
AcDbEntity
  8
0
  6
Continuous
 62
     7
370
    25
100
AcDbLine
 10
606.4817257873
 20
754.6010543353
 30
0.0
 11
606.4817257873
 21
754.1010543353
 31
0.0
  0
LINE
  5
3D9
330
1F
100
AcDbEntity
  8
0
  6
Continuous
 62
     7
370
    25
100
AcDbLine
 10
606.4817257873
 20
712.4010543353
 30
0.0
 11
606.4817257873
 21
711.4010543353
 31
0.0
  0
LINE
  5
3DA
330
1F
100
AcDbEntity
  8
0
  6
Continuous
 62
     7
370
    25
100
AcDbLine
 10
282.0817257873
 20
760.1010543353
 30
0.0
 11
282.0817257873
 21
759.6010543353
 31
0.0
  0
LINE
  5
3DB
330
1F
100
AcDbEntity
  8
0
  6
Continuous
 62
     7
370
    25
100
AcDbLine
 10
280.4817257873
 20
760.1010543353
 30
0.0
 11
280.4817257873
 21
759.6010543353
 31
0.0
  0
CIRCLE
  5
3DC
330
1F
100
AcDbEntity
  8
0
  6
Continuous
 62
     7
370
    25
100
AcDbCircle
 10
613.4817257873
 20
791.6010543353
 30
0.0
 40
2.25
  0
CIRCLE
  5
3DD
330
1F
100
AcDbEntity
  8
0
  6
Continuous
 62
     7
370
    25
100
AcDbCircle
 10
273.4817257873
 20
791.6010543353
 30
0.0
 40
2.25
  0
CIRCLE
  5
3DE
330
1F
100
AcDbEntity
  8
0
  6
Continuous
 62
     7
370
    25
100
AcDbCircle
 10
613.4817257873
 20
851.6010543353
 30
0.0
 40
2.25
  0
CIRCLE
  5
3DF
330
1F
100
AcDbEntity
  8
0
  6
Continuous
 62
     7
370
    25
100
AcDbCircle
 10
273.4817257873
 20
851.6010543353
 30
0.0
 40
2.25
  0
CIRCLE
  5
3E0
330
1F
100
AcDbEntity
  8
0
  6
Continuous
 62
     7
370
    25
100
AcDbCircle
 10
613.4817257873
 20
811.6010543353
 30
0.0
 40
2.25
  0
CIRCLE
  5
3E1
330
1F
100
AcDbEntity
  8
0
  6
Continuous
 62
     7
370
    25
100
AcDbCircle
 10
273.4817257873
 20
811.6010543353
 30
0.0
 40
2.25
  0
CIRCLE
  5
3E2
330
1F
100
AcDbEntity
  8
0
  6
Continuous
 62
     7
370
    25
100
AcDbCircle
 10
633.4817257873
 20
854.6010543353
 30
0.0
 40
3.0
  0
CIRCLE
  5
3E3
330
1F
100
AcDbEntity
  8
0
  6
Continuous
 62
     7
370
    25
100
AcDbCircle
 10
253.4817257873
 20
854.6010543353
 30
0.0
 40
3.0
  0
CIRCLE
  5
3E4
330
1F
100
AcDbEntity
  8
0
  6
Continuous
 62
     7
370
    25
100
AcDbCircle
 10
633.4817257873
 20
837.6010543353
 30
0.0
 40
3.0
  0
CIRCLE
  5
3E5
330
1F
100
AcDbEntity
  8
0
  6
Continuous
 62
     7
370
    25
100
AcDbCircle
 10
253.4817257873
 20
837.6010543353
 30
0.0
 40
3.0
  0
LINE
  5
3E6
330
1F
100
AcDbEntity
  8
0
  6
Continuous
 62
     7
370
    25
100
AcDbLine
 10
606.4817257873
 20
729.6010543353
 30
0.0
 11
606.9817257873
 21
729.6010543353
 31
0.0
  0
LINE
  5
3E7
330
1F
100
AcDbEntity
  8
0
  6
Continuous
 62
     7
370
    25
100
AcDbLine
 10
606.9817257873
 20
729.6010543353
 30
0.0
 11
606.9817257873
 21
749.6010543353
 31
0.0
  0
LINE
  5
3E8
330
1F
100
AcDbEntity
  8
0
  6
Continuous
 62
     7
370
    25
100
AcDbLine
 10
606.9817257873
 20
749.6010543353
 30
0.0
 11
606.4817257873
 21
749.6010543353
 31
0.0
  0
LINE
  5
3E9
330
1F
100
AcDbEntity
  8
0
  6
Continuous
 62
     7
370
    25
100
AcDbLine
 10
280.4817257873
 20
749.6010543353
 30
0.0
 11
279.9817257873
 21
749.6010543353
 31
0.0
  0
LINE
  5
3EA
330
1F
100
AcDbEntity
  8
0
  6
Continuous
 62
     7
370
    25
100
AcDbLine
 10
279.9817257873
 20
749.6010543353
 30
0.0
 11
279.9817257873
 21
729.6010543353
 31
0.0
  0
LINE
  5
3EB
330
1F
100
AcDbEntity
  8
0
  6
Continuous
 62
     7
370
    25
100
AcDbLine
 10
279.9817257873
 20
729.6010543353
 30
0.0
 11
280.4817257873
 21
729.6010543353
 31
0.0
  0
LINE
  5
3EC
330
1F
100
AcDbEntity
  8
0
  6
Continuous
 62
     7
370
    25
100
AcDbLine
 10
238.4817257873
 20
709.6010543353
 30
0.0
 11
282.2817257873
 21
709.6010543353
 31
0.0
  0
ARC
  5
3ED
330
1F
100
AcDbEntity
  8
0
  6
Continuous
 62
     7
370
    25
100
AcDbCircle
 10
238.4817257873
 20
714.6010543353
 30
0.0
 40
5.000000000000114
100
AcDbArc
 50
180.0
 51
270.0
  0
LINE
  5
3EE
330
1F
100
AcDbEntity
  8
0
  6
Continuous
 62
     7
370
    25
100
AcDbLine
 10
233.4817257873
 20
869.6010543353
 30
0.0
 11
233.4817257873
 21
714.6010543353
 31
0.0
  0
ARC
  5
3EF
330
1F
100
AcDbEntity
  8
0
  6
Continuous
 62
     7
370
    25
100
AcDbCircle
 10
238.4817257873
 20
869.6010543353
 30
0.0
 40
5.0
100
AcDbArc
 50
90.0
 51
180.0
  0
LINE
  5
3F0
330
1F
100
AcDbEntity
  8
0
  6
Continuous
 62
     7
370
    25
100
AcDbLine
 10
648.4817257873
 20
874.6010543353
 30
0.0
 11
238.4817257873
 21
874.6010543353
 31
0.0
  0
ARC
  5
3F1
330
1F
100
AcDbEntity
  8
0
  6
Continuous
 62
     7
370
    25
100
AcDbCircle
 10
648.4817257873
 20
869.6010543353
 30
0.0
 40
5.0
100
AcDbArc
 50
0.0
 51
90.0
  0
LINE
  5
3F2
330
1F
100
AcDbEntity
  8
0
  6
Continuous
 62
     7
370
    25
100
AcDbLine
 10
653.4817257873
 20
714.6010543353
 30
0.0
 11
653.4817257873
 21
869.6010543353
 31
0.0
  0
ARC
  5
3F3
330
1F
100
AcDbEntity
  8
0
  6
Continuous
 62
     7
370
    25
100
AcDbCircle
 10
648.4817257873
 20
714.6010543353
 30
0.0
 40
5.000000000000114
100
AcDbArc
 50
270.0
 51
0.0
  0
LINE
  5
3F4
330
1F
100
AcDbEntity
  8
0
  6
Continuous
 62
     7
370
    25
100
AcDbLine
 10
604.6817257873
 20
709.6010543353
 30
0.0
 11
648.4817257873
 21
709.6010543353
 31
0.0
  0
CIRCLE
  5
3F5
330
1F
100
AcDbEntity
  8
0
  6
Continuous
 62
     7
370
    25
100
AcDbCircle
 10
500.9817257873
 20
824.6010543353
 30
0.0
 40
2.000000000000057
  0
CIRCLE
  5
3F6
330
1F
100
AcDbEntity
  8
0
  6
Continuous
 62
     7
370
    25
100
AcDbCircle
 10
385.9817257873
 20
824.6010543353
 30
0.0
 40
2.0
  0
CIRCLE
  5
3F7
330
1F
100
AcDbEntity
  8
0
  6
Continuous
 62
     7
370
    25
100
AcDbCircle
 10
500.9817257873
 20
867.6010543353
 30
0.0
 40
2.000000000000057
  0
CIRCLE
  5
3F8
330
1F
100
AcDbEntity
  8
0
  6
Continuous
 62
     7
370
    25
100
AcDbCircle
 10
385.9817257873
 20
867.6010543353
 30
0.0
 40
2.0
  0
CIRCLE
  5
3F9
330
1F
100
AcDbEntity
  8
0
  6
Continuous
 62
     7
370
    25
100
AcDbCircle
 10
385.9817257873
 20
852.6010543353
 30
0.0
 40
2.0
  0
CIRCLE
  5
3FA
330
1F
100
AcDbEntity
  8
0
  6
Continuous
 62
     7
370
    25
100
AcDbCircle
 10
500.9817257873
 20
852.6010543353
 30
0.0
 40
2.0
  0
LINE
  5
3FB
330
1F
100
AcDbEntity
  8
0
  6
Continuous
 62
     8
370
    25
100
AcDbLine
 10
606.4817257873
 20
711.4010543353
 30
0.0
 11
605.4817257873
 21
711.4010543353
 31
0.0
  0
LINE
  5
3FC
330
1F
100
AcDbEntity
  8
0
  6
Continuous
 62
     8
370
    25
100
AcDbLine
 10
280.4817257873
 20
711.4010543353
 30
0.0
 11
281.4817257873
 21
711.4010543353
 31
0.0
  0
DIMENSION
  5
3FD
330
1F
100
AcDbEntity
  8
FORMAT
100
AcDbDimension
  2
_D
 10
653.4817257873
 20
984.6010543353
 30
0.0
 11
438.3809833257
 21
984.6010543353
 31
0.0
 70
   160
  1
<>
 71
     2
 42
-1.0
  3
SLDDIMSTYLE0
100
AcDbAlignedDimension
 13
233.4817257873
 23
869.6010543353
 33
0.0
 14
653.4817257873
 24
869.6010543353
 34
0.0
 50
0.0
100
AcDbRotatedDimension
  0
DIMENSION
  5
40C
330
1F
100
AcDbEntity
  8
FORMAT
100
AcDbDimension
  2
_D_1
 10
183.4817257873
 20
709.6010543353
 30
0.0
 11
183.4817257873
 21
751.4965499071
 31
0.0
 70
   160
  1
<>
 71
     2
 42
-1.0
  3
SLDDIMSTYLE0
100
AcDbAlignedDimension
 13
280.4817257873
 23
794.6010543353
 33
0.0
 14
282.2817257873
 24
709.6010543353
 34
0.0
 50
90.0
100
AcDbRotatedDimension
  0
DIMENSION
  5
416
330
1F
100
AcDbEntity
  8
FORMAT
100
AcDbDimension
  2
_D_2
 10
153.4817257873
 20
709.6010543353
 30
0.0
 11
153.4817257873
 21
776.2312632253
 31
0.0
 70
   160
  1
<>
 71
     2
 42
-1.0
  3
SLDDIMSTYLE0
100
AcDbAlignedDimension
 13
238.4817257873
 23
874.6010543353
 33
0.0
 14
238.4817257873
 24
709.6010543353
 34
0.0
 50
90.0
100
AcDbRotatedDimension
  0
DIMENSION
  5
420
330
1F
100
AcDbEntity
  8
FORMAT
100
AcDbDimension
  2
_D_3
 10
606.4817257873
 20
629.6010543353
 30
0.0
 11
438.3809833257
 21
629.6010543353
 31
0.0
 70
   160
  1
<>
 71
     2
 42
-1.0
  3
SLDDIMSTYLE0
100
AcDbAlignedDimension
 13
280.4817257873
 23
760.1010543353
 33
0.0
 14
606.4817257873
 24
760.1010543353
 34
0.0
100
AcDbRotatedDimension
  0
LINE
  5
42A
330
1F
100
AcDbEntity
  8
0
  6
Continuous
 62
     7
370
    25
100
AcDbLine
 10
280.4817257873
 20
1108.3851858012
 30
0.0
 11
282.0817257873
 21
1108.3851858012
 31
0.0
  0
LINE
  5
42B
330
1F
100
AcDbEntity
  8
0
  6
Continuous
 62
     7
370
    25
100
AcDbLine
 10
280.4817257873
 20
1110.5065061448
 30
0.0
 11
282.0817257873
 21
1110.5065061448
 31
0.0
  0
LINE
  5
42C
330
1F
100
AcDbEntity
  8
0
  6
Continuous
 62
     7
370
    25
100
AcDbLine
 10
282.0817257873
 20
1110.5065061448
 30
0.0
 11
282.0817257873
 21
1108.3851858012
 31
0.0
  0
LINE
  5
42D
330
1F
100
AcDbEntity
  8
0
  6
Continuous
 62
     7
370
    25
100
AcDbLine
 10
280.4817257873
 20
1110.5065061448
 30
0.0
 11
280.4817257873
 21
1108.3851858012
 31
0.0
  0
LINE
  5
42E
330
1F
100
AcDbEntity
  8
0
  6
Continuous
 62
     7
370
    25
100
AcDbLine
 10
606.4817257873
 20
1110.5065061448
 30
0.0
 11
604.8817257873
 21
1110.5065061448
 31
0.0
  0
LINE
  5
42F
330
1F
100
AcDbEntity
  8
0
  6
Continuous
 62
     7
370
    25
100
AcDbLine
 10
606.4817257873
 20
1108.3851858012
 30
0.0
 11
604.8817257873
 21
1108.3851858012
 31
0.0
  0
LINE
  5
430
330
1F
100
AcDbEntity
  8
0
  6
Continuous
 62
     7
370
    25
100
AcDbLine
 10
606.4817257873
 20
1108.3851858012
 30
0.0
 11
606.4817257873
 21
1110.5065061448
 31
0.0
  0
LINE
  5
431
330
1F
100
AcDbEntity
  8
0
  6
Continuous
 62
     7
370
    25
100
AcDbLine
 10
604.8817257873
 20
1108.3851858012
 30
0.0
 11
604.8817257873
 21
1110.5065061448
 31
0.0
  0
LINE
  5
432
330
1F
100
AcDbEntity
  8
0
  6
Continuous
 62
     7
370
    25
100
AcDbLine
 10
280.4817257873
 20
1106.2278264884
 30
0.0
 11
282.0817257873
 21
1106.2278264884
 31
0.0
  0
LINE
  5
433
330
1F
100
AcDbEntity
  8
0
  6
Continuous
 62
     7
370
    25
100
AcDbLine
 10
282.0817257873
 20
1108.3851858012
 30
0.0
 11
282.0817257873
 21
1106.2278264884
 31
0.0
  0
LINE
  5
434
330
1F
100
AcDbEntity
  8
0
  6
Continuous
 62
     7
370
    25
100
AcDbLine
 10
280.4817257873
 20
1108.3851858012
 30
0.0
 11
280.4817257873
 21
1106.2278264884
 31
0.0
  0
LINE
  5
435
330
1F
100
AcDbEntity
  8
0
  6
Continuous
 62
     7
370
    25
100
AcDbLine
 10
606.4817257873
 20
1104.4278264884
 30
0.0
 11
280.4817257873
 21
1104.4278264884
 31
0.0
  0
LINE
  5
436
330
1F
100
AcDbEntity
  8
0
  6
Continuous
 62
     7
370
    25
100
AcDbLine
 10
606.4817257873
 20
1104.4278264884
 30
0.0
 11
606.4817257873
 21
1106.0278264884
 31
0.0
  0
LINE
  5
437
330
1F
100
AcDbEntity
  8
0
  6
Continuous
 62
     7
370
    25
100
AcDbLine
 10
280.4817257873
 20
1104.4278264884
 30
0.0
 11
280.4817257873
 21
1106.0278264884
 31
0.0
  0
LINE
  5
438
330
1F
100
AcDbEntity
  8
0
  6
Continuous
 62
     7
370
    25
100
AcDbLine
 10
606.4817257873
 20
1106.0278264884
 30
0.0
 11
280.4817257873
 21
1106.0278264884
 31
0.0
  0
LINE
  5
439
330
1F
100
AcDbEntity
  8
0
  6
Continuous
 62
     7
370
    25
100
AcDbLine
 10
606.4817257873
 20
1106.2278264884
 30
0.0
 11
604.8817257873
 21
1106.2278264884
 31
0.0
  0
LINE
  5
43A
330
1F
100
AcDbEntity
  8
0
  6
Continuous
 62
     7
370
    25
100
AcDbLine
 10
606.4817257873
 20
1108.3851858012
 30
0.0
 11
606.4817257873
 21
1106.2278264884
 31
0.0
  0
LINE
  5
43B
330
1F
100
AcDbEntity
  8
0
  6
Continuous
 62
     7
370
    25
100
AcDbLine
 10
604.8817257873
 20
1108.3851858012
 30
0.0
 11
604.8817257873
 21
1106.2278264884
 31
0.0
  0
LINE
  5
43C
330
1F
100
AcDbEntity
  8
0
  6
Continuous
 62
     7
370
    25
100
AcDbLine
 10
606.4817257873
 20
1133.7491468319
 30
0.0
 11
604.8817257873
 21
1133.7491468319
 31
0.0
  0
LINE
  5
43D
330
1F
100
AcDbEntity
  8
0
  6
Continuous
 62
     7
370
    25
100
AcDbLine
 10
606.4817257873
 20
1110.5065061448
 30
0.0
 11
606.4817257873
 21
1133.7491468319
 31
0.0
  0
LINE
  5
43E
330
1F
100
AcDbEntity
  8
0
  6
Continuous
 62
     7
370
    25
100
AcDbLine
 10
604.8817257873
 20
1110.5065061448
 30
0.0
 11
604.8817257873
 21
1133.7491468319
 31
0.0
  0
LINE
  5
43F
330
1F
100
AcDbEntity
  8
0
  6
Continuous
 62
     7
370
    25
100
AcDbLine
 10
280.4817257873
 20
1133.7491468319
 30
0.0
 11
282.0817257873
 21
1133.7491468319
 31
0.0
  0
LINE
  5
440
330
1F
100
AcDbEntity
  8
0
  6
Continuous
 62
     7
370
    25
100
AcDbLine
 10
282.0817257873
 20
1110.5065061448
 30
0.0
 11
282.0817257873
 21
1133.7491468319
 31
0.0
  0
LINE
  5
441
330
1F
100
AcDbEntity
  8
0
  6
Continuous
 62
     7
370
    25
100
AcDbLine
 10
280.4817257873
 20
1110.5065061448
 30
0.0
 11
280.4817257873
 21
1133.7491468319
 31
0.0
  0
LINE
  5
442
330
1F
100
AcDbEntity
  8
0
  6
Continuous
 62
     7
370
    25
100
AcDbLine
 10
280.4817257873
 20
1135.8704671755
 30
0.0
 11
282.0817257873
 21
1135.8704671755
 31
0.0
  0
LINE
  5
443
330
1F
100
AcDbEntity
  8
0
  6
Continuous
 62
     7
370
    25
100
AcDbLine
 10
282.0817257873
 20
1135.8704671755
 30
0.0
 11
282.0817257873
 21
1133.7491468319
 31
0.0
  0
LINE
  5
444
330
1F
100
AcDbEntity
  8
0
  6
Continuous
 62
     7
370
    25
100
AcDbLine
 10
280.4817257873
 20
1135.8704671755
 30
0.0
 11
280.4817257873
 21
1133.7491468319
 31
0.0
  0
LINE
  5
445
330
1F
100
AcDbEntity
  8
0
  6
Continuous
 62
     7
370
    25
100
AcDbLine
 10
606.4817257873
 20
1135.8704671755
 30
0.0
 11
604.8817257873
 21
1135.8704671755
 31
0.0
  0
LINE
  5
446
330
1F
100
AcDbEntity
  8
0
  6
Continuous
 62
     7
370
    25
100
AcDbLine
 10
606.4817257873
 20
1133.7491468319
 30
0.0
 11
606.4817257873
 21
1135.8704671755
 31
0.0
  0
LINE
  5
447
330
1F
100
AcDbEntity
  8
0
  6
Continuous
 62
     7
370
    25
100
AcDbLine
 10
604.8817257873
 20
1133.7491468319
 30
0.0
 11
604.8817257873
 21
1135.8704671755
 31
0.0
  0
LINE
  5
448
330
1F
100
AcDbEntity
  8
0
  6
Continuous
 62
     7
370
    25
100
AcDbLine
 10
606.4817257873
 20
1135.8704671755
 30
0.0
 11
606.4817257873
 21
1181.8278264884
 31
0.0
  0
LINE
  5
449
330
1F
100
AcDbEntity
  8
0
  6
Continuous
 62
     7
370
    25
100
AcDbLine
 10
604.8817257873
 20
1135.8704671755
 30
0.0
 11
604.8817257873
 21
1181.8278264884
 31
0.0
  0
LINE
  5
44A
330
1F
100
AcDbEntity
  8
0
  6
Continuous
 62
     7
370
    25
100
AcDbLine
 10
282.0817257873
 20
1135.8704671755
 30
0.0
 11
282.0817257873
 21
1181.8278264884
 31
0.0
  0
LINE
  5
44B
330
1F
100
AcDbEntity
  8
0
  6
Continuous
 62
     7
370
    25
100
AcDbLine
 10
280.4817257873
 20
1135.8704671755
 30
0.0
 11
280.4817257873
 21
1181.8278264884
 31
0.0
  0
LINE
  5
44C
330
1F
100
AcDbEntity
  8
0
  6
Continuous
 62
     7
370
    25
100
AcDbLine
 10
606.4817257873
 20
1106.0278264884
 30
0.0
 11
606.4817257873
 21
1106.2278264884
 31
0.0
  0
LINE
  5
44D
330
1F
100
AcDbEntity
  8
0
  6
Continuous
 62
     7
370
    25
100
AcDbLine
 10
604.8817257873
 20
1106.0278264884
 30
0.0
 11
604.8817257873
 21
1106.2278264884
 31
0.0
  0
LINE
  5
44E
330
1F
100
AcDbEntity
  8
0
  6
Continuous
 62
     7
370
    25
100
AcDbLine
 10
282.0817257873
 20
1106.0278264884
 30
0.0
 11
282.0817257873
 21
1106.2278264884
 31
0.0
  0
LINE
  5
44F
330
1F
100
AcDbEntity
  8
0
  6
Continuous
 62
     7
370
    25
100
AcDbLine
 10
280.4817257873
 20
1106.0278264884
 30
0.0
 11
280.4817257873
 21
1106.2278264884
 31
0.0
  0
LINE
  5
450
330
1F
100
AcDbEntity
  8
0
  6
Continuous
 62
     7
370
    25
100
AcDbLine
 10
604.6817257873
 20
1106.2278264884
 30
0.0
 11
604.6817257873
 21
1181.8278264884
 31
0.0
  0
LINE
  5
451
330
1F
100
AcDbEntity
  8
0
  6
Continuous
 62
     7
370
    25
100
AcDbLine
 10
604.6817257873
 20
1106.2278264884
 30
0.0
 11
604.8817257873
 21
1106.2278264884
 31
0.0
  0
LINE
  5
452
330
1F
100
AcDbEntity
  8
0
  6
Continuous
 62
     7
370
    25
100
AcDbLine
 10
282.2817257873
 20
1181.8278264884
 30
0.0
 11
282.2817257873
 21
1106.2278264884
 31
0.0
  0
LINE
  5
453
330
1F
100
AcDbEntity
  8
0
  6
Continuous
 62
     7
370
    25
100
AcDbLine
 10
282.0817257873
 20
1106.2278264884
 30
0.0
 11
282.2817257873
 21
1106.2278264884
 31
0.0
  0
LINE
  5
454
330
1F
100
AcDbEntity
  8
0
  6
Continuous
 62
     7
370
    25
100
AcDbLine
 10
282.2817257873
 20
1106.2278264884
 30
0.0
 11
604.6817257873
 21
1106.2278264884
 31
0.0
  0
LINE
  5
455
330
1F
100
AcDbEntity
  8
0
  6
Continuous
 62
     7
370
    25
100
AcDbLine
 10
604.6817257873
 20
1106.0278264884
 30
0.0
 11
604.6817257873
 21
1106.2278264884
 31
0.0
  0
LINE
  5
456
330
1F
100
AcDbEntity
  8
0
  6
Continuous
 62
     7
370
    25
100
AcDbLine
 10
282.2817257873
 20
1106.2278264884
 30
0.0
 11
282.2817257873
 21
1106.0278264884
 31
0.0
  0
CIRCLE
  5
457
330
1F
100
AcDbEntity
  8
0
  6
Continuous
 62
     7
370
    25
100
AcDbCircle
 10
543.4817257873
 20
1138.4278264884
 30
0.0
 40
1.25
  0
CIRCLE
  5
458
330
1F
100
AcDbEntity
  8
0
  6
Continuous
 62
     7
370
    25
100
AcDbCircle
 10
343.4817257873
 20
1138.4278264884
 30
0.0
 40
1.25
  0
CIRCLE
  5
459
330
1F
100
AcDbEntity
  8
0
  6
Continuous
 62
     7
370
    25
100
AcDbCircle
 10
443.4817257873
 20
1148.4278264884
 30
0.0
 40
4.0
  0
LINE
  5
45A
330
1F
100
AcDbEntity
  8
0
  6
Continuous
 62
     7
370
    25
100
AcDbLine
 10
653.4817257873
 20
1183.4278264884
 30
0.0
 11
653.4817257873
 21
1181.8278264884
 31
0.0
  0
LINE
  5
45B
330
1F
100
AcDbEntity
  8
0
  6
Continuous
 62
     7
370
    25
100
AcDbLine
 10
648.4817257873
 20
1181.8278264884
 30
0.0
 11
648.4817257873
 21
1183.4278264884
 31
0.0
  0
LINE
  5
45C
330
1F
100
AcDbEntity
  8
0
  6
Continuous
 62
     7
370
    25
100
AcDbLine
 10
653.4817257873
 20
1181.8278264884
 30
0.0
 11
648.4817257873
 21
1181.8278264884
 31
0.0
  0
LINE
  5
45D
330
1F
100
AcDbEntity
  8
0
  6
Continuous
 62
     7
370
    25
100
AcDbLine
 10
648.4817257873
 20
1183.4278264884
 30
0.0
 11
653.4817257873
 21
1183.4278264884
 31
0.0
  0
LINE
  5
45E
330
1F
100
AcDbEntity
  8
0
  6
Continuous
 62
     7
370
    25
100
AcDbLine
 10
238.4817257873
 20
1183.4278264884
 30
0.0
 11
238.4817257873
 21
1181.8278264884
 31
0.0
  0
LINE
  5
45F
330
1F
100
AcDbEntity
  8
0
  6
Continuous
 62
     7
370
    25
100
AcDbLine
 10
648.4817257873
 20
1181.8278264884
 30
0.0
 11
238.4817257873
 21
1181.8278264884
 31
0.0
  0
LINE
  5
460
330
1F
100
AcDbEntity
  8
0
  6
Continuous
 62
     7
370
    25
100
AcDbLine
 10
648.4817257873
 20
1183.4278264884
 30
0.0
 11
238.4817257873
 21
1183.4278264884
 31
0.0
  0
LINE
  5
461
330
1F
100
AcDbEntity
  8
0
  6
Continuous
 62
     7
370
    25
100
AcDbLine
 10
233.4817257873
 20
1181.8278264884
 30
0.0
 11
233.4817257873
 21
1183.4278264884
 31
0.0
  0
LINE
  5
462
330
1F
100
AcDbEntity
  8
0
  6
Continuous
 62
     7
370
    25
100
AcDbLine
 10
238.4817257873
 20
1181.8278264884
 30
0.0
 11
233.4817257873
 21
1181.8278264884
 31
0.0
  0
LINE
  5
463
330
1F
100
AcDbEntity
  8
0
  6
Continuous
 62
     7
370
    25
100
AcDbLine
 10
233.4817257873
 20
1183.4278264884
 30
0.0
 11
238.4817257873
 21
1183.4278264884
 31
0.0
  0
DIMENSION
  5
464
330
1F
100
AcDbEntity
  8
FORMAT
100
AcDbDimension
  2
_D_4
 10
282.0817257873
 20
1233.4278264884
 30
0.0
 11
293.1741398466
 21
1233.4278264884
 31
0.0
 70
   160
  1
<>
 71
     2
 42
-1.0
  3
SLDDIMSTYLE1
100
AcDbAlignedDimension
 13
280.4817257873
 23
1183.4278264884
 33
0.0
 14
282.0817257873
 24
1183.4278264884
 34
0.0
100
AcDbRotatedDimension
  0
DIMENSION
  5
470
330
1F
100
AcDbEntity
  8
FORMAT
100
AcDbDimension
  2
_D_5
 10
604.8817257873
 20
1233.4278264884
 30
0.0
 11
441.093906354
 21
1233.4278264884
 31
0.0
 70
   160
  1
<>
 71
     2
 42
-1.0
  3
SLDDIMSTYLE1
100
AcDbAlignedDimension
 13
282.0817257873
 23
1183.4278264884
 33
0.0
 14
604.8817257873
 24
1183.4278264884
 34
0.0
100
AcDbRotatedDimension
  0
DIMENSION
  5
47A
330
1F
100
AcDbEntity
  8
FORMAT
100
AcDbDimension
  2
_D_6
 10
606.4817257873
 20
1233.4278264884
 30
0.0
 11
595.7696237356
 21
1233.4278264884
 31
0.0
 70
   160
  1
<>
 71
     2
 42
-1.0
  3
SLDDIMSTYLE1
100
AcDbAlignedDimension
 13
604.8817257873
 23
1183.4278264884
 33
0.0
 14
606.4817257873
 24
1183.4278264884
 34
0.0
100
AcDbRotatedDimension
  0
DIMENSION
  5
485
330
1F
100
AcDbEntity
  8
FORMAT
100
AcDbDimension
  2
_D_7
 10
153.4817257873
 20
1106.0278264884
 30
0.0
 11
153.4817257873
 21
1141.3840575227
 31
0.0
 70
   160
  1
<>
 71
     2
 42
-1.0
  3
SLDDIMSTYLE1
100
AcDbAlignedDimension
 13
233.4817257873
 23
1181.8278264884
 33
0.0
 14
280.4817257873
 24
1106.0278264884
 34
0.0
 50
90.0
100
AcDbRotatedDimension
  0
DIMENSION
  5
48F
330
1F
100
AcDbEntity
  8
FORMAT
100
AcDbDimension
  2
_D_8
 10
153.4817257873
 20
1106.0278264884
 30
0.0
 11
153.4817257873
 21
1084.0874032995
 31
0.0
 70
   160
  1
<>
 71
     2
 42
-1.0
  3
SLDDIMSTYLE1
100
AcDbAlignedDimension
 13
280.4817257873
 23
1104.4278264884
 33
0.0
 14
280.4817257873
 24
1106.0278264884
 34
0.0
 50
90.0
100
AcDbRotatedDimension
  0
LINE
  5
49A
330
1F
100
AcDbEntity
  8
0
  6
Continuous
 62
     7
370
    25
100
AcDbLine
 10
860.2382154181
 20
711.4010543353
 30
0.0
 11
784.6382154181
 21
711.4010543353
 31
0.0
  0
LINE
  5
49B
330
1F
100
AcDbEntity
  8
0
  6
Continuous
 62
     7
370
    25
100
AcDbLine
 10
784.6382154181
 20
754.6010543353
 30
0.0
 11
784.6382154181
 21
711.4010543353
 31
0.0
  0
LINE
  5
49C
330
1F
100
AcDbEntity
  8
0
  6
Continuous
 62
     7
370
    25
100
AcDbLine
 10
782.8382154181
 20
754.6010543353
 30
0.0
 11
784.6382154181
 21
754.6010543353
 31
0.0
  0
LINE
  5
49D
330
1F
100
AcDbEntity
  8
0
  6
Continuous
 62
     7
370
    25
100
AcDbLine
 10
782.8382154181
 20
759.6010543353
 30
0.0
 11
782.8382154181
 21
754.6010543353
 31
0.0
  0
LINE
  5
49E
330
1F
100
AcDbEntity
  8
0
  6
Continuous
 62
     7
370
    25
100
AcDbLine
 10
782.8382154181
 20
759.6010543353
 30
0.0
 11
784.6382154181
 21
759.6010543353
 31
0.0
  0
LINE
  5
49F
330
1F
100
AcDbEntity
  8
0
  6
Continuous
 62
     7
370
    25
100
AcDbLine
 10
784.6382154181
 20
794.6010543353
 30
0.0
 11
784.6382154181
 21
759.6010543353
 31
0.0
  0
LINE
  5
4A0
330
1F
100
AcDbEntity
  8
0
  6
Continuous
 62
     7
370
    25
100
AcDbLine
 10
786.795574731
 20
794.6010543353
 30
0.0
 11
784.6382154181
 21
794.6010543353
 31
0.0
  0
ARC
  5
4A1
330
1F
100
AcDbEntity
  8
0
  6
Continuous
 62
     7
370
    25
100
AcDbCircle
 10
786.795574731
 20
791.6010543353
 30
0.0
 40
2.999999999999886
100
AcDbArc
 50
45.0
 51
90.0
  0
LINE
  5
4A2
330
1F
100
AcDbEntity
  8
0
  6
Continuous
 62
     7
370
    25
100
AcDbLine
 10
788.9168950746
 20
793.7223746789
 30
0.0
 11
812.1595357617
 21
770.4797339917
 31
0.0
  0
ARC
  5
4A3
330
1F
100
AcDbEntity
  8
0
  6
Continuous
 62
     7
370
    25
100
AcDbCircle
 10
814.2808561052
 20
772.6010543353
 30
0.0
 40
3.000000000000114
100
AcDbArc
 50
225.0
 51
270.0
  0
LINE
  5
4A4
330
1F
100
AcDbEntity
  8
0
  6
Continuous
 62
     7
370
    25
100
AcDbLine
 10
814.2808561052
 20
769.6010543353
 30
0.0
 11
860.2382154181
 21
769.6010543353
 31
0.0
  0
LINE
  5
4A5
330
1F
100
AcDbEntity
  8
0
  6
Continuous
 62
     7
370
    25
100
AcDbLine
 10
784.6382154181
 20
709.6010543353
 30
0.0
 11
860.2382154181
 21
709.6010543353
 31
0.0
  0
LINE
  5
4A6
330
1F
100
AcDbEntity
  8
0
  6
Continuous
 62
     7
370
    25
100
AcDbLine
 10
784.6382154181
 20
709.6010543353
 30
0.0
 11
784.6382154181
 21
711.4010543353
 31
0.0
  0
LINE
  5
4A7
330
1F
100
AcDbEntity
  8
0
  6
Continuous
 62
     7
370
    25
100
AcDbLine
 10
784.4382154181
 20
760.1010543353
 30
0.0
 11
784.4382154181
 21
794.6010543353
 31
0.0
  0
LINE
  5
4A8
330
1F
100
AcDbEntity
  8
0
  6
Continuous
 62
     7
370
    25
100
AcDbLine
 10
782.8382154181
 20
794.6010543353
 30
0.0
 11
784.4382154181
 21
794.6010543353
 31
0.0
  0
LINE
  5
4A9
330
1F
100
AcDbEntity
  8
0
  6
Continuous
 62
     7
370
    25
100
AcDbLine
 10
782.8382154181
 20
760.1010543353
 30
0.0
 11
782.8382154181
 21
794.6010543353
 31
0.0
  0
LINE
  5
4AA
330
1F
100
AcDbEntity
  8
0
  6
Continuous
 62
     7
370
    25
100
AcDbLine
 10
782.8382154181
 20
760.1010543353
 30
0.0
 11
784.4382154181
 21
760.1010543353
 31
0.0
  0
LINE
  5
4AB
330
1F
100
AcDbEntity
  8
0
  6
Continuous
 62
     7
370
    25
100
AcDbLine
 10
784.4382154181
 20
712.4010543353
 30
0.0
 11
784.4382154181
 21
754.1010543353
 31
0.0
  0
LINE
  5
4AC
330
1F
100
AcDbEntity
  8
0
  6
Continuous
 62
     7
370
    25
100
AcDbLine
 10
782.8382154181
 20
712.4010543353
 30
0.0
 11
784.4382154181
 21
712.4010543353
 31
0.0
  0
LINE
  5
4AD
330
1F
100
AcDbEntity
  8
0
  6
Continuous
 62
     7
370
    25
100
AcDbLine
 10
782.8382154181
 20
712.4010543353
 30
0.0
 11
782.8382154181
 21
754.1010543353
 31
0.0
  0
LINE
  5
4AE
330
1F
100
AcDbEntity
  8
0
  6
Continuous
 62
     7
370
    25
100
AcDbLine
 10
782.8382154181
 20
754.1010543353
 30
0.0
 11
784.4382154181
 21
754.1010543353
 31
0.0
  0
LINE
  5
4AF
330
1F
100
AcDbEntity
  8
0
  6
Continuous
 62
     7
370
    25
100
AcDbLine
 10
784.4382154181
 20
712.4010543353
 30
0.0
 11
784.4382154181
 21
711.4010543353
 31
0.0
  0
LINE
  5
4B0
330
1F
100
AcDbEntity
  8
0
  6
Continuous
 62
     7
370
    25
100
AcDbLine
 10
784.4382154181
 20
711.4010543353
 30
0.0
 11
782.8382154181
 21
711.4010543353
 31
0.0
  0
LINE
  5
4B1
330
1F
100
AcDbEntity
  8
0
  6
Continuous
 62
     7
370
    25
100
AcDbLine
 10
782.8382154181
 20
711.4010543353
 30
0.0
 11
782.8382154181
 21
712.4010543353
 31
0.0
  0
LINE
  5
4B2
330
1F
100
AcDbEntity
  8
0
  6
Continuous
 62
     7
370
    25
100
AcDbLine
 10
784.4382154181
 20
760.1010543353
 30
0.0
 11
784.4382154181
 21
759.6010543353
 31
0.0
  0
LINE
  5
4B3
330
1F
100
AcDbEntity
  8
0
  6
Continuous
 62
     7
370
    25
100
AcDbLine
 10
784.4382154181
 20
754.6010543353
 30
0.0
 11
784.4382154181
 21
754.1010543353
 31
0.0
  0
LINE
  5
4B4
330
1F
100
AcDbEntity
  8
0
  6
Continuous
 62
     7
370
    25
100
AcDbLine
 10
782.8382154181
 20
760.1010543353
 30
0.0
 11
782.8382154181
 21
759.6010543353
 31
0.0
  0
LINE
  5
4B5
330
1F
100
AcDbEntity
  8
0
  6
Continuous
 62
     7
370
    25
100
AcDbLine
 10
782.8382154181
 20
754.6010543353
 30
0.0
 11
782.8382154181
 21
754.1010543353
 31
0.0
  0
ARC
  5
4B6
330
1F
100
AcDbEntity
  8
0
  6
Continuous
 62
     7
370
    25
100
AcDbCircle
 10
784.6382154181
 20
711.4010543353
 30
0.0
 40
0.2000000000000455
100
AcDbArc
 50
180.0
 51
270.0
  0
ARC
  5
4B7
330
1F
100
AcDbEntity
  8
0
  6
Continuous
 62
     7
370
    25
100
AcDbCircle
 10
784.6382154181
 20
711.4010543353
 30
0.0
 40
1.800000000000068
100
AcDbArc
 50
180.0
 51
270.0
  0
LINE
  5
4B8
330
1F
100
AcDbEntity
  8
0
  6
Continuous
 62
     7
370
    25
100
AcDbLine
 10
860.2382154181
 20
714.6010543353
 30
0.0
 11
861.8382154181
 21
714.6010543353
 31
0.0
  0
LINE
  5
4B9
330
1F
100
AcDbEntity
  8
0
  6
Continuous
 62
     7
370
    25
100
AcDbLine
 10
861.8382154181
 20
869.6010543353
 30
0.0
 11
860.2382154181
 21
869.6010543353
 31
0.0
  0
LINE
  5
4BA
330
1F
100
AcDbEntity
  8
0
  6
Continuous
 62
     7
370
    25
100
AcDbLine
 10
860.2382154181
 20
714.6010543353
 30
0.0
 11
860.2382154181
 21
869.6010543353
 31
0.0
  0
LINE
  5
4BB
330
1F
100
AcDbEntity
  8
0
  6
Continuous
 62
     7
370
    25
100
AcDbLine
 10
861.8382154181
 20
714.6010543353
 30
0.0
 11
861.8382154181
 21
869.6010543353
 31
0.0
  0
LINE
  5
4BC
330
1F
100
AcDbEntity
  8
0
  6
Continuous
 62
     7
370
    25
100
AcDbLine
 10
861.8382154181
 20
709.6010543353
 30
0.0
 11
860.2382154181
 21
709.6010543353
 31
0.0
  0
LINE
  5
4BD
330
1F
100
AcDbEntity
  8
0
  6
Continuous
 62
     7
370
    25
100
AcDbLine
 10
860.2382154181
 20
709.6010543353
 30
0.0
 11
860.2382154181
 21
714.6010543353
 31
0.0
  0
LINE
  5
4BE
330
1F
100
AcDbEntity
  8
0
  6
Continuous
 62
     7
370
    25
100
AcDbLine
 10
861.8382154181
 20
714.6010543353
 30
0.0
 11
861.8382154181
 21
709.6010543353
 31
0.0
  0
LINE
  5
4BF
330
1F
100
AcDbEntity
  8
0
  6
Continuous
 62
     7
370
    25
100
AcDbLine
 10
860.2382154181
 20
874.6010543353
 30
0.0
 11
861.8382154181
 21
874.6010543353
 31
0.0
  0
LINE
  5
4C0
330
1F
100
AcDbEntity
  8
0
  6
Continuous
 62
     7
370
    25
100
AcDbLine
 10
860.2382154181
 20
869.6010543353
 30
0.0
 11
860.2382154181
 21
874.6010543353
 31
0.0
  0
LINE
  5
4C1
330
1F
100
AcDbEntity
  8
0
  6
Continuous
 62
     7
370
    25
100
AcDbLine
 10
861.8382154181
 20
874.6010543353
 30
0.0
 11
861.8382154181
 21
869.6010543353
 31
0.0
  0
DIMENSION
  5
4C2
330
1F
100
AcDbEntity
  8
FORMAT
100
AcDbDimension
  2
_D_9
 10
861.8382154181
 20
629.6010543353
 30
0.0
 11
822.8639397828
 21
629.6010543353
 31
0.0
 70
   160
  1
<>
 71
     2
 42
-1.0
  3
SLDDIMSTYLE0
100
AcDbAlignedDimension
 13
782.8382154181
 23
711.4010543353
 33
0.0
 14
861.8382154181
 24
709.6010543353
 34
0.0
100
AcDbRotatedDimension
  0
LINE
  5
4CC
330
1F
100
AcDbEntity
  8
0
  6
Continuous
 62
     7
370
    25
100
AcDbLine
 10
266.8749500246
 20
165.1706019259
 30
0.0
 11
266.8749500246
 21
163.5706019663
 31
0.0
  0
LINE
  5
4CD
330
1F
100
AcDbEntity
  8
0
  6
Continuous
 62
     7
370
    25
100
AcDbLine
 10
264.8749459715
 20
163.5706019663
 30
0.0
 11
264.8749459715
 21
165.1706019259
 31
0.0
  0
LINE
  5
4CE
330
1F
100
AcDbEntity
  8
0
  6
Continuous
 62
     7
370
    25
100
AcDbLine
 10
264.8749459715
 20
165.1706019259
 30
0.0
 11
266.8749500246
 21
165.1706019259
 31
0.0
  0
LINE
  5
4CF
330
1F
100
AcDbEntity
  8
0
  6
Continuous
 62
     7
370
    25
100
AcDbLine
 10
266.8749500246
 20
163.5706019663
 30
0.0
 11
264.8749459715
 21
163.5706019663
 31
0.0
  0
LINE
  5
4D0
330
1F
100
AcDbEntity
  8
0
  6
Continuous
 62
     7
370
    25
100
AcDbLine
 10
244.3749565811
 20
161.1706018523
 30
0.0
 11
245.9749538631
 21
161.1706018523
 31
0.0
  0
LINE
  5
4D1
330
1F
100
AcDbEntity
  8
0
  6
Continuous
 62
     7
370
    25
100
AcDbLine
 10
245.9749538631
 20
161.1706018523
 30
0.0
 11
245.9749538631
 21
159.1706019901
 31
0.0
  0
LINE
  5
4D2
330
1F
100
AcDbEntity
  8
0
  6
Continuous
 62
     7
370
    25
100
AcDbLine
 10
245.9749538631
 20
159.1706019901
 30
0.0
 11
244.3749565811
 21
159.1706019901
 31
0.0
  0
LINE
  5
4D3
330
1F
100
AcDbEntity
  8
0
  6
Continuous
 62
     7
370
    25
100
AcDbLine
 10
244.3749565811
 20
159.1706019901
 30
0.0
 11
244.3749565811
 21
161.1706018523
 31
0.0
  0
LINE
  5
4D4
330
1F
100
AcDbEntity
  8
0
  6
Continuous
 62
     7
370
    25
100
AcDbLine
 10
657.7749509544
 20
159.1706019901
 30
0.0
 11
659.3749482365
 21
159.1706019901
 31
0.0
  0
LINE
  5
4D5
330
1F
100
AcDbEntity
  8
0
  6
Continuous
 62
     7
370
    25
100
AcDbLine
 10
657.7749509544
 20
161.1706018523
 30
0.0
 11
657.7749509544
 21
159.1706019901
 31
0.0
  0
LINE
  5
4D6
330
1F
100
AcDbEntity
  8
0
  6
Continuous
 62
     7
370
    25
100
AcDbLine
 10
659.3749482365
 20
161.1706018523
 30
0.0
 11
657.7749509544
 21
161.1706018523
 31
0.0
  0
LINE
  5
4D7
330
1F
100
AcDbEntity
  8
0
  6
Continuous
 62
     7
370
    25
100
AcDbLine
 10
659.3749482365
 20
159.1706019901
 30
0.0
 11
659.3749482365
 21
161.1706018523
 31
0.0
  0
LINE
  5
4D8
330
1F
100
AcDbEntity
  8
0
  6
Continuous
 62
     7
370
    25
100
AcDbLine
 10
638.8749588461
 20
163.5706019663
 30
0.0
 11
638.8749588461
 21
165.1706019259
 31
0.0
  0
LINE
  5
4D9
330
1F
100
AcDbEntity
  8
0
  6
Continuous
 62
     7
370
    25
100
AcDbLine
 10
636.874954793
 20
165.1706019259
 30
0.0
 11
636.874954793
 21
163.5706019663
 31
0.0
  0
LINE
  5
4DA
330
1F
100
AcDbEntity
  8
0
  6
Continuous
 62
     7
370
    25
100
AcDbLine
 10
638.8749588461
 20
165.1706019259
 30
0.0
 11
636.874954793
 21
165.1706019259
 31
0.0
  0
LINE
  5
4DB
330
1F
100
AcDbEntity
  8
0
  6
Continuous
 62
     7
370
    25
100
AcDbLine
 10
636.874954793
 20
163.5706019663
 30
0.0
 11
638.8749588461
 21
163.5706019663
 31
0.0
  0
LINE
  5
4DC
330
1F
100
AcDbEntity
  8
0
  6
Continuous
 62
     7
370
    25
100
AcDbLine
 10
657.5749475689
 20
163.5706019663
 30
0.0
 11
657.5749475689
 21
165.1706019259
 31
0.0
  0
LINE
  5
4DD
330
1F
100
AcDbEntity
  8
0
  6
Continuous
 62
     7
370
    25
100
AcDbLine
 10
657.7749509544
 20
163.3706019713
 30
0.0
 11
659.3749482365
 21
163.3706019713
 31
0.0
  0
ARC
  5
4DE
330
1F
100
AcDbEntity
  8
0
  6
Continuous
 62
     7
370
    25
100
AcDbCircle
 10
657.5749524088
 20
163.3706019663
 30
0.0
 40
0.2000000000000455
100
AcDbArc
 50
0.0
 51
90.0
  0
ARC
  5
4DF
330
1F
100
AcDbEntity
  8
0
  6
Continuous
 62
     7
370
    25
100
AcDbCircle
 10
657.5749524088
 20
163.3706019663
 30
0.0
 40
1.80000000000004
100
AcDbArc
 50
0.0
 51
90.0
  0
LINE
  5
4E0
330
1F
100
AcDbEntity
  8
0
  6
Continuous
 62
     7
370
    25
100
AcDbLine
 10
246.1749572487
 20
163.5706019663
 30
0.0
 11
246.1749572487
 21
165.1706019259
 31
0.0
  0
LINE
  5
4E1
330
1F
100
AcDbEntity
  8
0
  6
Continuous
 62
     7
370
    25
100
AcDbLine
 10
246.1749572487
 20
165.1706019259
 30
0.0
 11
264.8749459715
 21
165.1706019259
 31
0.0
  0
LINE
  5
4E2
330
1F
100
AcDbEntity
  8
0
  6
Continuous
 62
     7
370
    25
100
AcDbLine
 10
246.1749572487
 20
163.5706019663
 30
0.0
 11
264.8749459715
 21
163.5706019663
 31
0.0
  0
LINE
  5
4E3
330
1F
100
AcDbEntity
  8
0
  6
Continuous
 62
     7
370
    25
100
AcDbLine
 10
245.9749538631
 20
163.3706019713
 30
0.0
 11
244.3749565811
 21
163.3706019713
 31
0.0
  0
LINE
  5
4E4
330
1F
100
AcDbEntity
  8
0
  6
Continuous
 62
     7
370
    25
100
AcDbLine
 10
245.9749538631
 20
161.1706018523
 30
0.0
 11
245.9749538631
 21
163.3706019713
 31
0.0
  0
LINE
  5
4E5
330
1F
100
AcDbEntity
  8
0
  6
Continuous
 62
     7
370
    25
100
AcDbLine
 10
244.3749565811
 20
161.1706018523
 30
0.0
 11
244.3749565811
 21
163.3706019713
 31
0.0
  0
LINE
  5
4E6
330
1F
100
AcDbEntity
  8
0
  6
Continuous
 62
     7
370
    25
100
AcDbLine
 10
657.5749475689
 20
165.1706019259
 30
0.0
 11
638.8749588461
 21
165.1706019259
 31
0.0
  0
LINE
  5
4E7
330
1F
100
AcDbEntity
  8
0
  6
Continuous
 62
     7
370
    25
100
AcDbLine
 10
657.5749475689
 20
163.5706019663
 30
0.0
 11
638.8749588461
 21
163.5706019663
 31
0.0
  0
LINE
  5
4E8
330
1F
100
AcDbEntity
  8
0
  6
Continuous
 62
     7
370
    25
100
AcDbLine
 10
657.7749509544
 20
161.1706018523
 30
0.0
 11
657.7749509544
 21
163.3706019713
 31
0.0
  0
LINE
  5
4E9
330
1F
100
AcDbEntity
  8
0
  6
Continuous
 62
     7
370
    25
100
AcDbLine
 10
659.3749482365
 20
161.1706018523
 30
0.0
 11
659.3749482365
 21
163.3706019713
 31
0.0
  0
ARC
  5
4EA
330
1F
100
AcDbEntity
  8
0
  6
Continuous
 62
     7
370
    25
100
AcDbCircle
 10
246.1749524088
 20
163.3706019663
 30
0.0
 40
0.2000000000000455
100
AcDbArc
 50
90.0
 51
180.0
  0
ARC
  5
4EB
330
1F
100
AcDbEntity
  8
0
  6
Continuous
 62
     7
370
    25
100
AcDbCircle
 10
246.1749524088
 20
163.3706019663
 30
0.0
 40
1.80000000000004
100
AcDbArc
 50
90.0
 51
180.0
  0
LINE
  5
4EC
330
1F
100
AcDbEntity
  8
0
  6
Continuous
 62
     7
370
    25
100
AcDbLine
 10
268.8749540777
 20
165.1706019259
 30
0.0
 11
268.8749540777
 21
163.5706019663
 31
0.0
  0
LINE
  5
4ED
330
1F
100
AcDbEntity
  8
0
  6
Continuous
 62
     7
370
    25
100
AcDbLine
 10
266.8749500246
 20
165.1706019259
 30
0.0
 11
268.8749540777
 21
165.1706019259
 31
0.0
  0
LINE
  5
4EE
330
1F
100
AcDbEntity
  8
0
  6
Continuous
 62
     7
370
    25
100
AcDbLine
 10
268.8749540777
 20
163.5706019663
 30
0.0
 11
266.8749500246
 21
163.5706019663
 31
0.0
  0
LINE
  5
4EF
330
1F
100
AcDbEntity
  8
0
  6
Continuous
 62
     7
370
    25
100
AcDbLine
 10
634.8749507399
 20
165.1706019259
 30
0.0
 11
634.8749507399
 21
163.5706019663
 31
0.0
  0
LINE
  5
4F0
330
1F
100
AcDbEntity
  8
0
  6
Continuous
 62
     7
370
    25
100
AcDbLine
 10
636.874954793
 20
165.1706019259
 30
0.0
 11
634.8749507399
 21
165.1706019259
 31
0.0
  0
LINE
  5
4F1
330
1F
100
AcDbEntity
  8
0
  6
Continuous
 62
     7
370
    25
100
AcDbLine
 10
634.8749507399
 20
163.5706019663
 30
0.0
 11
636.874954793
 21
163.5706019663
 31
0.0
  0
LINE
  5
4F2
330
1F
100
AcDbEntity
  8
0
  6
Continuous
 62
     7
370
    25
100
AcDbLine
 10
634.8749507399
 20
165.1706019259
 30
0.0
 11
268.8749540777
 21
165.1706019259
 31
0.0
  0
LINE
  5
4F3
330
1F
100
AcDbEntity
  8
0
  6
Continuous
 62
     7
370
    25
100
AcDbLine
 10
634.8749507399
 20
163.5706019663
 30
0.0
 11
268.8749540777
 21
163.5706019663
 31
0.0
  0
LINE
  5
4F4
330
1F
100
AcDbEntity
  8
0
  6
Continuous
 62
     7
370
    25
100
AcDbLine
 10
657.5749475689
 20
165.3706019354
 30
0.0
 11
657.5749475689
 21
165.1706019259
 31
0.0
  0
LINE
  5
4F5
330
1F
100
AcDbEntity
  8
0
  6
Continuous
 62
     7
370
    25
100
AcDbLine
 10
246.1749572487
 20
165.3706019354
 30
0.0
 11
246.1749572487
 21
165.1706019259
 31
0.0
  0
LINE
  5
4F6
330
1F
100
AcDbEntity
  8
0
  6
Continuous
 62
     7
370
    25
100
AcDbLine
 10
246.1749572487
 20
165.3706019354
 30
0.0
 11
657.5749475689
 21
165.3706019354
 31
0.0
  0
CIRCLE
  5
4F7
330
1F
100
AcDbEntity
  8
0
  6
Continuous
 62
     7
370
    25
100
AcDbCircle
 10
641.8749524088
 20
181.0706019663
 30
0.0
 40
1.500000000000114
  0
ARC
  5
4F8
330
1F
100
AcDbEntity
  8
0
  6
Continuous
 62
     7
370
    25
100
AcDbCircle
 10
249.3749524088
 20
183.5706019663
 30
0.0
 40
5.0
100
AcDbArc
 50
90.0
 51
180.0
  0
ARC
  5
4F9
330
1F
100
AcDbEntity
  8
0
  6
Continuous
 62
     7
370
    25
100
AcDbCircle
 10
654.3749524088
 20
183.5706019663
 30
0.0
 40
5.0
100
AcDbArc
 50
0.0
 51
90.0
  0
ARC
  5
4FA
330
1F
100
AcDbEntity
  8
0
  6
Continuous
 62
     7
370
    25
100
AcDbCircle
 10
658.3749524088
 20
166.3706019663
 30
0.0
 40
1.0
100
AcDbArc
 50
270.0
 51
0.0
  0
LINE
  5
4FB
330
1F
100
AcDbEntity
  8
0
  6
Continuous
 62
     7
370
    25
100
AcDbLine
 10
658.3749462099
 20
165.3706019354
 30
0.0
 11
657.5749475689
 21
165.3706019354
 31
0.0
  0
ARC
  5
4FC
330
1F
100
AcDbEntity
  8
0
  6
Continuous
 62
     7
370
    25
100
AcDbCircle
 10
245.3749524088
 20
166.3706019663
 30
0.0
 40
1.0
100
AcDbArc
 50
180.0
 51
270.0
  0
CIRCLE
  5
4FD
330
1F
100
AcDbEntity
  8
0
  6
Continuous
 62
     7
370
    25
100
AcDbCircle
 10
261.8749524088
 20
181.0706019663
 30
0.0
 40
1.5
  0
LINE
  5
4FE
330
1F
100
AcDbEntity
  8
0
  6
Continuous
 62
     7
370
    25
100
AcDbLine
 10
244.3749565811
 20
166.3706018664
 30
0.0
 11
244.3749565811
 21
183.5706015192
 31
0.0
  0
LINE
  5
4FF
330
1F
100
AcDbEntity
  8
0
  6
Continuous
 62
     7
370
    25
100
AcDbLine
 10
249.3749518127
 20
188.5706023388
 30
0.0
 11
654.3749530048
 21
188.5706023388
 31
0.0
  0
LINE
  5
500
330
1F
100
AcDbEntity
  8
0
  6
Continuous
 62
     7
370
    25
100
AcDbLine
 10
245.3749586077
 20
165.3706019354
 30
0.0
 11
246.1749572487
 21
165.3706019354
 31
0.0
  0
LINE
  5
501
330
1F
100
AcDbEntity
  8
0
  6
Continuous
 62
     7
370
    25
100
AcDbLine
 10
659.3749482365
 20
166.3706018664
 30
0.0
 11
659.3749482365
 21
183.5706015192
 31
0.0
  0
DIMENSION
  5
502
330
1F
100
AcDbEntity
  8
FORMAT
100
AcDbDimension
  2
_D_10
 10
659.3749524088
 20
268.5706019663
 30
0.0
 11
458.8480699694
 21
268.5706019663
 31
0.0
 70
   160
  1
<>
 71
     2
 42
-1.0
  3
SLDDIMSTYLE0
100
AcDbAlignedDimension
 13
244.3749524088
 23
183.5706019663
 33
0.0
 14
659.3749524088
 24
183.5706019663
 34
0.0
100
AcDbRotatedDimension
  0
DIMENSION
  5
50C
330
1F
100
AcDbEntity
  8
FORMAT
100
AcDbDimension
  2
_D_11
 10
164.3749524088
 20
159.1706019663
 30
0.0
 11
164.3749524088
 21
177.4577081223
 31
0.0
 70
   160
  1
<>
 71
     2
 42
-1.0
  3
SLDDIMSTYLE1
100
AcDbAlignedDimension
 13
249.3749524088
 23
188.5706019663
 33
0.0
 14
244.3749524088
 24
159.1706019663
 34
0.0
 50
90.0
100
AcDbRotatedDimension
  0
LINE
  5
516
330
1F
100
AcDbEntity
  8
0
  6
Continuous
 62
     7
370
    25
100
AcDbLine
 10
654.3749530048
 20
391.8363258831
 30
0.0
 11
654.3749530048
 21
390.2363259235
 31
0.0
  0
LINE
  5
517
330
1F
100
AcDbEntity
  8
0
  6
Continuous
 62
     7
370
    25
100
AcDbLine
 10
659.3749482365
 20
391.8363258831
 30
0.0
 11
654.3749530048
 21
391.8363258831
 31
0.0
  0
LINE
  5
518
330
1F
100
AcDbEntity
  8
0
  6
Continuous
 62
     7
370
    25
100
AcDbLine
 10
659.3749482365
 20
390.2363259235
 30
0.0
 11
659.3749482365
 21
391.8363258831
 31
0.0
  0
LINE
  5
519
330
1F
100
AcDbEntity
  8
0
  6
Continuous
 62
     7
370
    25
100
AcDbLine
 10
654.3749530048
 20
390.2363259235
 30
0.0
 11
659.3749482365
 21
390.2363259235
 31
0.0
  0
LINE
  5
51A
330
1F
100
AcDbEntity
  8
0
  6
Continuous
 62
     7
370
    25
100
AcDbLine
 10
249.3749518127
 20
390.2363259235
 30
0.0
 11
654.3749530048
 21
390.2363259235
 31
0.0
  0
LINE
  5
51B
330
1F
100
AcDbEntity
  8
0
  6
Continuous
 62
     7
370
    25
100
AcDbLine
 10
249.3749518127
 20
391.8363258831
 30
0.0
 11
249.3749518127
 21
390.2363259235
 31
0.0
  0
LINE
  5
51C
330
1F
100
AcDbEntity
  8
0
  6
Continuous
 62
     7
370
    25
100
AcDbLine
 10
249.3749518127
 20
391.8363258831
 30
0.0
 11
654.3749530048
 21
391.8363258831
 31
0.0
  0
LINE
  5
51D
330
1F
100
AcDbEntity
  8
0
  6
Continuous
 62
     7
370
    25
100
AcDbLine
 10
244.3749565811
 20
390.2363259235
 30
0.0
 11
244.3749565811
 21
391.8363258831
 31
0.0
  0
LINE
  5
51E
330
1F
100
AcDbEntity
  8
0
  6
Continuous
 62
     7
370
    25
100
AcDbLine
 10
249.3749518127
 20
390.2363259235
 30
0.0
 11
244.3749565811
 21
390.2363259235
 31
0.0
  0
LINE
  5
51F
330
1F
100
AcDbEntity
  8
0
  6
Continuous
 62
     7
370
    25
100
AcDbLine
 10
244.3749565811
 20
391.8363258831
 30
0.0
 11
249.3749518127
 21
391.8363258831
 31
0.0
  0
LINE
  5
520
330
1F
100
AcDbEntity
  8
0
  6
Continuous
 62
     7
370
    25
100
AcDbLine
 10
246.1749572487
 20
390.036325914
 30
0.0
 11
657.5749475689
 21
390.036325914
 31
0.0
  0
LINE
  5
521
330
1F
100
AcDbEntity
  8
0
  6
Continuous
 62
     7
370
    25
100
AcDbLine
 10
246.1749572487
 20
390.2363259235
 30
0.0
 11
246.1749572487
 21
390.036325914
 31
0.0
  0
LINE
  5
522
330
1F
100
AcDbEntity
  8
0
  6
Continuous
 62
     7
370
    25
100
AcDbLine
 10
657.5749475689
 20
390.2363259235
 30
0.0
 11
657.5749475689
 21
390.036325914
 31
0.0
  0
LINE
  5
523
330
1F
100
AcDbEntity
  8
0
  6
Continuous
 62
     7
370
    25
100
AcDbLine
 10
659.3749482365
 20
390.036325914
 30
0.0
 11
657.5749475689
 21
390.036325914
 31
0.0
  0
LINE
  5
524
330
1F
100
AcDbEntity
  8
0
  6
Continuous
 62
     7
370
    25
100
AcDbLine
 10
659.3749482365
 20
371.8363263302
 30
0.0
 11
659.3749482365
 21
390.036325914
 31
0.0
  0
LINE
  5
525
330
1F
100
AcDbEntity
  8
0
  6
Continuous
 62
     7
370
    25
100
AcDbLine
 10
657.5749475689
 20
371.8363263302
 30
0.0
 11
659.3749482365
 21
371.8363263302
 31
0.0
  0
LINE
  5
526
330
1F
100
AcDbEntity
  8
0
  6
Continuous
 62
     7
370
    25
100
AcDbLine
 10
657.5749475689
 20
390.036325914
 30
0.0
 11
657.5749475689
 21
371.8363263302
 31
0.0
  0
LINE
  5
527
330
1F
100
AcDbEntity
  8
0
  6
Continuous
 62
     7
370
    25
100
AcDbLine
 10
246.1749572487
 20
371.8363263302
 30
0.0
 11
244.3749565811
 21
371.8363263302
 31
0.0
  0
LINE
  5
528
330
1F
100
AcDbEntity
  8
0
  6
Continuous
 62
     7
370
    25
100
AcDbLine
 10
244.3749565811
 20
371.8363263302
 30
0.0
 11
244.3749565811
 21
390.036325914
 31
0.0
  0
LINE
  5
529
330
1F
100
AcDbEntity
  8
0
  6
Continuous
 62
     7
370
    25
100
AcDbLine
 10
244.3749565811
 20
390.036325914
 30
0.0
 11
246.1749572487
 21
390.036325914
 31
0.0
  0
LINE
  5
52A
330
1F
100
AcDbEntity
  8
0
  6
Continuous
 62
     7
370
    25
100
AcDbLine
 10
246.1749572487
 20
390.036325914
 30
0.0
 11
246.1749572487
 21
371.8363263302
 31
0.0
  0
LINE
  5
52B
330
1F
100
AcDbEntity
  8
0
  6
Continuous
 62
     7
370
    25
100
AcDbLine
 10
657.5749475689
 20
371.8363263302
 30
0.0
 11
638.8749588461
 21
371.8363263302
 31
0.0
  0
ARC
  5
52C
330
1F
100
AcDbEntity
  8
0
  6
Continuous
 62
     7
370
    25
100
AcDbCircle
 10
638.8749524088
 20
373.8363258831
 30
0.0
 40
2.0
100
AcDbArc
 50
180.0
 51
270.0
  0
LINE
  5
52D
330
1F
100
AcDbEntity
  8
0
  6
Continuous
 62
     7
370
    25
100
AcDbLine
 10
636.874954793
 20
379.8363257788
 30
0.0
 11
636.874954793
 21
373.836326658
 31
0.0
  0
ARC
  5
52E
330
1F
100
AcDbEntity
  8
0
  6
Continuous
 62
     7
370
    25
100
AcDbCircle
 10
634.8749524088
 20
379.8363258831
 30
0.0
 40
2.0
100
AcDbArc
 50
0.0
 51
90.0
  0
LINE
  5
52F
330
1F
100
AcDbEntity
  8
0
  6
Continuous
 62
     7
370
    25
100
AcDbLine
 10
634.8749507399
 20
381.8363261066
 30
0.0
 11
268.8749540777
 21
381.8363261066
 31
0.0
  0
ARC
  5
530
330
1F
100
AcDbEntity
  8
0
  6
Continuous
 62
     7
370
    25
100
AcDbCircle
 10
268.8749524088
 20
379.8363258831
 30
0.0
 40
2.0
100
AcDbArc
 50
90.0
 51
180.0
  0
LINE
  5
531
330
1F
100
AcDbEntity
  8
0
  6
Continuous
 62
     7
370
    25
100
AcDbLine
 10
266.8749500246
 20
379.8363257788
 30
0.0
 11
266.8749500246
 21
373.836326658
 31
0.0
  0
ARC
  5
532
330
1F
100
AcDbEntity
  8
0
  6
Continuous
 62
     7
370
    25
100
AcDbCircle
 10
264.8749524088
 20
373.8363258831
 30
0.0
 40
2.000000000000057
100
AcDbArc
 50
270.0
 51
0.0
  0
LINE
  5
533
330
1F
100
AcDbEntity
  8
0
  6
Continuous
 62
     7
370
    25
100
AcDbLine
 10
246.1749572487
 20
371.8363263302
 30
0.0
 11
264.8749459715
 21
371.8363263302
 31
0.0
  0
LINE
  5
534
330
1F
100
AcDbEntity
  8
0
  6
HIDDEN
 62
     7
370
    18
100
AcDbLine
 10
245.3749586077
 20
390.2363259235
 30
0.0
 11
245.3749586077
 21
391.8363258831
 31
0.0
  0
LINE
  5
535
330
1F
100
AcDbEntity
  8
0
  6
HIDDEN
 62
     7
370
    18
100
AcDbLine
 10
658.3749462099
 20
390.2363259235
 30
0.0
 11
658.3749462099
 21
391.8363258831
 31
0.0
  0
LINE
  5
536
330
1F
100
AcDbEntity
  8
0
  6
HIDDEN
 62
     7
370
    18
100
AcDbLine
 10
657.5749475689
 20
390.2363259235
 30
0.0
 11
657.5749475689
 21
391.8363258831
 31
0.0
  0
LINE
  5
537
330
1F
100
AcDbEntity
  8
0
  6
HIDDEN
 62
     7
370
    18
100
AcDbLine
 10
246.1749572487
 20
390.2363259235
 30
0.0
 11
246.1749572487
 21
391.8363258831
 31
0.0
  0
LINE
  5
538
330
1F
100
AcDbEntity
  8
0
  6
HIDDEN
 62
     7
370
    18
100
AcDbLine
 10
245.9749538631
 20
371.8363263302
 30
0.0
 11
245.9749538631
 21
390.036325914
 31
0.0
  0
LINE
  5
539
330
1F
100
AcDbEntity
  8
0
  6
HIDDEN
 62
     7
370
    18
100
AcDbLine
 10
657.7749509544
 20
371.8363263302
 30
0.0
 11
657.7749509544
 21
390.036325914
 31
0.0
  0
LINE
  5
53A
330
1F
100
AcDbEntity
  8
0
  6
HIDDEN
 62
     7
370
    18
100
AcDbLine
 10
244.3749565811
 20
388.036325819
 30
0.0
 11
245.9749538631
 21
388.036325819
 31
0.0
  0
LINE
  5
53B
330
1F
100
AcDbEntity
  8
0
  6
HIDDEN
 62
     7
370
    18
100
AcDbLine
 10
659.3749482365
 20
388.036325819
 30
0.0
 11
657.7749509544
 21
388.036325819
 31
0.0
  0
LINE
  5
53C
330
1F
100
AcDbEntity
  8
0
  6
HIDDEN
 62
     7
370
    18
100
AcDbLine
 10
245.9749538631
 20
373.836326658
 30
0.0
 11
244.3749565811
 21
373.836326658
 31
0.0
  0
LINE
  5
53D
330
1F
100
AcDbEntity
  8
0
  6
HIDDEN
 62
     7
370
    18
100
AcDbLine
 10
657.7749509544
 20
373.836326658
 30
0.0
 11
659.3749482365
 21
373.836326658
 31
0.0
  0
LINE
  5
53E
330
1F
100
AcDbEntity
  8
0
  6
HIDDEN
 62
     7
370
    18
100
AcDbLine
 10
640.3749544353
 20
391.8363258831
 30
0.0
 11
640.3749544353
 21
390.2363259235
 31
0.0
  0
LINE
  5
53F
330
1F
100
AcDbEntity
  8
0
  6
HIDDEN
 62
     7
370
    18
100
AcDbLine
 10
643.3749456139
 20
390.2363259235
 30
0.0
 11
643.3749456139
 21
391.8363258831
 31
0.0
  0
LINE
  5
540
330
1F
100
AcDbEntity
  8
0
  6
HIDDEN
 62
     7
370
    18
100
AcDbLine
 10
260.3749592037
 20
391.8363258831
 30
0.0
 11
260.3749592037
 21
390.2363259235
 31
0.0
  0
LINE
  5
541
330
1F
100
AcDbEntity
  8
0
  6
HIDDEN
 62
     7
370
    18
100
AcDbLine
 10
263.3749503822
 20
390.2363259235
 30
0.0
 11
263.3749503822
 21
391.8363258831
 31
0.0
  0
ARC
  5
542
330
1F
100
AcDbEntity
  8
0
  6
Continuous
 62
     7
370
    25
100
AcDbCircle
 10
843.0377097405
 20
161.1706019663
 30
0.0
 40
2.000000000000114
100
AcDbArc
 50
270.0
 51
0.0
  0
ARC
  5
543
330
1F
100
AcDbEntity
  8
0
  6
Continuous
 62
     7
370
    25
100
AcDbCircle
 10
828.8377097405
 20
161.1706019663
 30
0.0
 40
2.0
100
AcDbArc
 50
180.0
 51
270.0
  0
LINE
  5
544
330
1F
100
AcDbEntity
  8
0
  6
Continuous
 62
     7
370
    25
100
AcDbLine
 10
826.8377101875
 20
161.1706018523
 30
0.0
 11
826.8377101875
 21
163.3706019713
 31
0.0
  0
LINE
  5
545
330
1F
100
AcDbEntity
  8
0
  6
Continuous
 62
     7
370
    25
100
AcDbLine
 10
826.8377101875
 20
163.3706019713
 30
0.0
 11
845.0377097714
 21
163.3706019713
 31
0.0
  0
LINE
  5
546
330
1F
100
AcDbEntity
  8
0
  6
Continuous
 62
     7
370
    25
100
AcDbLine
 10
845.0377097714
 20
163.3706019713
 30
0.0
 11
845.0377097714
 21
161.1706018523
 31
0.0
  0
LINE
  5
547
330
1F
100
AcDbEntity
  8
0
  6
Continuous
 62
     7
370
    25
100
AcDbLine
 10
843.0377096764
 20
159.1706019901
 30
0.0
 11
828.8377105154
 21
159.1706019901
 31
0.0
  0
LINE
  5
548
330
1F
100
AcDbEntity
  8
0
  6
Continuous
 62
     7
370
    25
100
AcDbLine
 10
845.0377097714
 20
163.3706019713
 30
0.0
 11
845.0377097714
 21
165.1706019259
 31
0.0
  0
LINE
  5
549
330
1F
100
AcDbEntity
  8
0
  6
Continuous
 62
     7
370
    25
100
AcDbLine
 10
826.8377101875
 20
165.1706019259
 30
0.0
 11
826.8377101875
 21
163.3706019713
 31
0.0
  0
LINE
  5
54A
330
1F
100
AcDbEntity
  8
0
  6
Continuous
 62
     7
370
    25
100
AcDbLine
 10
845.0377097714
 20
165.1706019259
 30
0.0
 11
826.8377101875
 21
165.1706019259
 31
0.0
  0
LINE
  5
54B
330
1F
100
AcDbEntity
  8
0
  6
Continuous
 62
     7
370
    25
100
AcDbLine
 10
846.8377097405
 20
188.5706023388
 30
0.0
 11
845.2377097809
 21
188.5706023388
 31
0.0
  0
LINE
  5
54C
330
1F
100
AcDbEntity
  8
0
  6
Continuous
 62
     7
370
    25
100
AcDbLine
 10
845.2377097809
 20
183.5706015192
 30
0.0
 11
846.8377097405
 21
183.5706015192
 31
0.0
  0
LINE
  5
54D
330
1F
100
AcDbEntity
  8
0
  6
Continuous
 62
     7
370
    25
100
AcDbLine
 10
845.2377097809
 20
188.5706023388
 30
0.0
 11
845.2377097809
 21
183.5706015192
 31
0.0
  0
LINE
  5
54E
330
1F
100
AcDbEntity
  8
0
  6
Continuous
 62
     7
370
    25
100
AcDbLine
 10
846.8377097405
 20
183.5706015192
 30
0.0
 11
846.8377097405
 21
188.5706023388
 31
0.0
  0
LINE
  5
54F
330
1F
100
AcDbEntity
  8
0
  6
Continuous
 62
     7
370
    25
100
AcDbLine
 10
845.2377097809
 20
165.3706019354
 30
0.0
 11
846.8377097405
 21
165.3706019354
 31
0.0
  0
LINE
  5
550
330
1F
100
AcDbEntity
  8
0
  6
Continuous
 62
     7
370
    25
100
AcDbLine
 10
846.8377097405
 20
166.3706018664
 30
0.0
 11
845.2377097809
 21
166.3706018664
 31
0.0
  0
LINE
  5
551
330
1F
100
AcDbEntity
  8
0
  6
Continuous
 62
     7
370
    25
100
AcDbLine
 10
845.2377097809
 20
166.3706018664
 30
0.0
 11
845.2377097809
 21
165.3706019354
 31
0.0
  0
LINE
  5
552
330
1F
100
AcDbEntity
  8
0
  6
Continuous
 62
     7
370
    25
100
AcDbLine
 10
846.8377097405
 20
165.3706019354
 30
0.0
 11
846.8377097405
 21
166.3706018664
 31
0.0
  0
LINE
  5
553
330
1F
100
AcDbEntity
  8
0
  6
Continuous
 62
     7
370
    25
100
AcDbLine
 10
845.2377097809
 20
166.3706018664
 30
0.0
 11
845.2377097809
 21
183.5706015192
 31
0.0
  0
LINE
  5
554
330
1F
100
AcDbEntity
  8
0
  6
Continuous
 62
     7
370
    25
100
AcDbLine
 10
846.8377097405
 20
166.3706018664
 30
0.0
 11
846.8377097405
 21
183.5706015192
 31
0.0
  0
ARC
  5
555
330
1F
100
AcDbEntity
  8
0
  6
Continuous
 62
     7
370
    25
100
AcDbCircle
 10
845.0377097405
 20
165.3706019663
 30
0.0
 40
1.799999999999983
100
AcDbArc
 50
270.0
 51
0.0
  0
ARC
  5
556
330
1F
100
AcDbEntity
  8
0
  6
Continuous
 62
     7
370
    25
100
AcDbCircle
 10
845.0377097405
 20
165.3706019663
 30
0.0
 40
0.1999999999999886
100
AcDbArc
 50
270.0
 51
0.0
  0
LINE
  5
557
330
1F
100
AcDbEntity
  8
0
  6
HIDDEN
 62
     7
370
    18
100
AcDbLine
 10
845.0377097714
 20
163.5706019663
 30
0.0
 11
826.8377101875
 21
163.5706019663
 31
0.0
  0
LINE
  5
558
330
1F
100
AcDbEntity
  8
0
  6
HIDDEN
 62
     7
370
    18
100
AcDbLine
 10
828.8377105154
 20
165.1706019259
 30
0.0
 11
828.8377105154
 21
163.5706019663
 31
0.0
  0
LINE
  5
559
330
1F
100
AcDbEntity
  8
0
  6
HIDDEN
 62
     7
370
    18
100
AcDbLine
 10
834.8377096362
 20
163.5706019663
 30
0.0
 11
834.8377096362
 21
165.1706019259
 31
0.0
  0
LINE
  5
55A
330
1F
100
AcDbEntity
  8
0
  6
HIDDEN
 62
     7
370
    18
100
AcDbLine
 10
836.837709964
 20
165.1706019259
 30
0.0
 11
836.837709964
 21
163.5706019663
 31
0.0
  0
LINE
  5
55B
330
1F
100
AcDbEntity
  8
0
  6
HIDDEN
 62
     7
370
    18
100
AcDbLine
 10
846.8377097405
 20
182.5706013553
 30
0.0
 11
845.2377097809
 21
182.5706013553
 31
0.0
  0
LINE
  5
55C
330
1F
100
AcDbEntity
  8
0
  6
HIDDEN
 62
     7
370
    18
100
AcDbLine
 10
845.2377097809
 20
179.5706027262
 30
0.0
 11
846.8377097405
 21
179.5706027262
 31
0.0
  0
DIMENSION
  5
55D
330
1F
100
AcDbEntity
  8
FORMAT
100
AcDbDimension
  2
_D_12
 10
846.8377097405
 20
79.1706019663
 30
0.0
 11
867.9105887586
 21
79.1706019663
 31
0.0
 70
   160
  1
<>
 71
     2
 42
-1.0
  3
SLDDIMSTYLE0
100
AcDbAlignedDimension
 13
826.8377097405
 23
161.1706019663
 33
0.0
 14
846.8377097405
 24
165.3706019663
 34
0.0
 50
0.0
100
AcDbRotatedDimension
  0
LINE
  5
568
330
1F
100
AcDbEntity
  8
0
  6
Continuous
 62
     7
370
    25
100
AcDbLine
 10
1342.7059787234
 20
748.6010543353
 30
0.0
 11
1342.7059787234
 21
730.6010543353
 31
0.0
  0
LINE
  5
569
330
1F
100
AcDbEntity
  8
0
  6
Continuous
 62
     7
370
    25
100
AcDbLine
 10
1344.3059787234
 20
748.6010543353
 30
0.0
 11
1342.7059787234
 21
748.6010543353
 31
0.0
  0
LINE
  5
56A
330
1F
100
AcDbEntity
  8
0
  6
Continuous
 62
     7
370
    25
100
AcDbLine
 10
1344.3059787234
 20
748.6010543353
 30
0.0
 11
1344.3059787234
 21
730.6010543353
 31
0.0
  0
LINE
  5
56B
330
1F
100
AcDbEntity
  8
0
  6
Continuous
 62
     7
370
    25
100
AcDbLine
 10
1344.3059787234
 20
730.6010543353
 30
0.0
 11
1342.7059787234
 21
730.6010543353
 31
0.0
  0
LINE
  5
56C
330
1F
100
AcDbEntity
  8
0
  6
Continuous
 62
     7
370
    25
100
AcDbLine
 10
1018.3059787234
 20
730.6010543353
 30
0.0
 11
1018.3059787234
 21
748.6010543353
 31
0.0
  0
LINE
  5
56D
330
1F
100
AcDbEntity
  8
0
  6
Continuous
 62
     7
370
    25
100
AcDbLine
 10
1018.3059787234
 20
748.6010543353
 30
0.0
 11
1019.9059787234
 21
748.6010543353
 31
0.0
  0
LINE
  5
56E
330
1F
100
AcDbEntity
  8
0
  6
Continuous
 62
     7
370
    25
100
AcDbLine
 10
1019.9059787234
 20
730.6010543353
 30
0.0
 11
1019.9059787234
 21
748.6010543353
 31
0.0
  0
LINE
  5
56F
330
1F
100
AcDbEntity
  8
0
  6
Continuous
 62
     7
370
    25
100
AcDbLine
 10
1018.3059787234
 20
730.6010543353
 30
0.0
 11
1019.9059787234
 21
730.6010543353
 31
0.0
  0
LINE
  5
570
330
1F
100
AcDbEntity
  8
0
  6
Continuous
 62
     7
370
    25
100
AcDbLine
 10
1344.3059787234
 20
729.6010543353
 30
0.0
 11
1344.3059787234
 21
730.6010543353
 31
0.0
  0
LINE
  5
571
330
1F
100
AcDbEntity
  8
0
  6
Continuous
 62
     7
370
    25
100
AcDbLine
 10
1344.3059787234
 20
748.6010543353
 30
0.0
 11
1344.3059787234
 21
749.6010543353
 31
0.0
  0
LINE
  5
572
330
1F
100
AcDbEntity
  8
0
  6
Continuous
 62
     7
370
    25
100
AcDbLine
 10
1038.3059787234
 20
709.6010543353
 30
0.0
 11
1324.3059787234
 21
709.6010543353
 31
0.0
  0
LINE
  5
573
330
1F
100
AcDbEntity
  8
0
  6
Continuous
 62
     7
370
    25
100
AcDbLine
 10
1040.9592785557
 20
711.2010543353
 30
0.0
 11
1321.6526788912
 21
711.2010543353
 31
0.0
  0
LINE
  5
574
330
1F
100
AcDbEntity
  8
0
  6
Continuous
 62
     7
370
    25
100
AcDbLine
 10
1018.3059787234
 20
729.6010543353
 30
0.0
 11
1018.3059787234
 21
730.6010543353
 31
0.0
  0
LINE
  5
575
330
1F
100
AcDbEntity
  8
0
  6
Continuous
 62
     7
370
    25
100
AcDbLine
 10
1018.3059787234
 20
748.6010543353
 30
0.0
 11
1018.3059787234
 21
749.6010543353
 31
0.0
  0
ARC
  5
576
330
1F
100
AcDbEntity
  8
0
  6
Continuous
 62
     7
370
    25
100
AcDbCircle
 10
976.3059787234
 20
714.6010543353
 30
0.0
 40
5.000000000000114
100
AcDbArc
 50
180.0
 51
270.0
  0
LINE
  5
577
330
1F
100
AcDbEntity
  8
0
  6
Continuous
 62
     7
370
    25
100
AcDbLine
 10
971.3059787234
 20
714.6010543353
 30
0.0
 11
971.3059787234
 21
869.6010543353
 31
0.0
  0
ARC
  5
578
330
1F
100
AcDbEntity
  8
0
  6
Continuous
 62
     7
370
    25
100
AcDbCircle
 10
976.3059787234
 20
869.6010543353
 30
0.0
 40
5.0
100
AcDbArc
 50
90.0
 51
180.0
  0
LINE
  5
579
330
1F
100
AcDbEntity
  8
0
  6
Continuous
 62
     7
370
    25
100
AcDbLine
 10
976.3059787234
 20
874.6010543353
 30
0.0
 11
1386.3059787234
 21
874.6010543353
 31
0.0
  0
ARC
  5
57A
330
1F
100
AcDbEntity
  8
0
  6
Continuous
 62
     7
370
    25
100
AcDbCircle
 10
1386.3059787234
 20
869.6010543353
 30
0.0
 40
5.0
100
AcDbArc
 50
0.0
 51
90.0
  0
LINE
  5
57B
330
1F
100
AcDbEntity
  8
0
  6
Continuous
 62
     7
370
    25
100
AcDbLine
 10
1391.3059787234
 20
869.6010543353
 30
0.0
 11
1391.3059787234
 21
714.6010543353
 31
0.0
  0
ARC
  5
57C
330
1F
100
AcDbEntity
  8
0
  6
Continuous
 62
     7
370
    25
100
AcDbCircle
 10
1386.3059787234
 20
714.6010543353
 30
0.0
 40
5.000000000000114
100
AcDbArc
 50
270.0
 51
0.0
  0
LINE
  5
57D
330
1F
100
AcDbEntity
  8
0
  6
Continuous
 62
     7
370
    25
100
AcDbLine
 10
1386.3059787234
 20
709.6010543353
 30
0.0
 11
1324.3059787234
 21
709.6010543353
 31
0.0
  0
ARC
  5
57E
330
1F
100
AcDbEntity
  8
0
  6
Continuous
 62
     7
370
    25
100
AcDbCircle
 10
1324.3059787234
 20
712.6010543353
 30
0.0
 40
3.000000000000114
100
AcDbArc
 50
180.0
 51
270.0
  0
LINE
  5
57F
330
1F
100
AcDbEntity
  8
0
  6
Continuous
 62
     7
370
    25
100
AcDbLine
 10
1321.3059787234
 20
719.6010543353
 30
0.0
 11
1321.3059787234
 21
712.6010543353
 31
0.0
  0
LINE
  5
580
330
1F
100
AcDbEntity
  8
0
  6
Continuous
 62
     7
370
    25
100
AcDbLine
 10
1321.3059787234
 20
789.6010543353
 30
0.0
 11
1321.3059787234
 21
719.6010543353
 31
0.0
  0
LINE
  5
581
330
1F
100
AcDbEntity
  8
0
  6
Continuous
 62
     7
370
    25
100
AcDbLine
 10
1041.3059787234
 20
789.6010543353
 30
0.0
 11
1321.3059787234
 21
789.6010543353
 31
0.0
  0
LINE
  5
582
330
1F
100
AcDbEntity
  8
0
  6
Continuous
 62
     7
370
    25
100
AcDbLine
 10
1041.3059787234
 20
719.6010543353
 30
0.0
 11
1041.3059787234
 21
789.6010543353
 31
0.0
  0
LINE
  5
583
330
1F
100
AcDbEntity
  8
0
  6
Continuous
 62
     7
370
    25
100
AcDbLine
 10
1041.3059787234
 20
712.6010543353
 30
0.0
 11
1041.3059787234
 21
719.6010543353
 31
0.0
  0
ARC
  5
584
330
1F
100
AcDbEntity
  8
0
  6
Continuous
 62
     7
370
    25
100
AcDbCircle
 10
1038.3059787234
 20
712.6010543353
 30
0.0
 40
3.000000000000114
100
AcDbArc
 50
270.0
 51
0.0
  0
LINE
  5
585
330
1F
100
AcDbEntity
  8
0
  6
Continuous
 62
     7
370
    25
100
AcDbLine
 10
1038.3059787234
 20
709.6010543353
 30
0.0
 11
976.3059787234
 21
709.6010543353
 31
0.0
  0
CIRCLE
  5
586
330
1F
100
AcDbEntity
  8
0
  6
Continuous
 62
     7
370
    25
100
AcDbCircle
 10
1011.3059787234
 20
791.6010543353
 30
0.0
 40
2.25
  0
CIRCLE
  5
587
330
1F
100
AcDbEntity
  8
0
  6
Continuous
 62
     7
370
    25
100
AcDbCircle
 10
1351.3059787234
 20
791.6010543353
 30
0.0
 40
2.25
  0
CIRCLE
  5
588
330
1F
100
AcDbEntity
  8
0
  6
Continuous
 62
     7
370
    25
100
AcDbCircle
 10
1011.3059787234
 20
851.6010543353
 30
0.0
 40
2.25
  0
CIRCLE
  5
589
330
1F
100
AcDbEntity
  8
0
  6
Continuous
 62
     7
370
    25
100
AcDbCircle
 10
1351.3059787234
 20
851.6010543353
 30
0.0
 40
2.25
  0
CIRCLE
  5
58A
330
1F
100
AcDbEntity
  8
0
  6
Continuous
 62
     7
370
    25
100
AcDbCircle
 10
1011.3059787234
 20
811.6010543353
 30
0.0
 40
2.25
  0
CIRCLE
  5
58B
330
1F
100
AcDbEntity
  8
0
  6
Continuous
 62
     7
370
    25
100
AcDbCircle
 10
1351.3059787234
 20
811.6010543353
 30
0.0
 40
2.25
  0
CIRCLE
  5
58C
330
1F
100
AcDbEntity
  8
0
  6
Continuous
 62
     7
370
    25
100
AcDbCircle
 10
991.3059787234
 20
854.6010543353
 30
0.0
 40
2.999999999999886
  0
CIRCLE
  5
58D
330
1F
100
AcDbEntity
  8
0
  6
Continuous
 62
     7
370
    25
100
AcDbCircle
 10
1371.3059787234
 20
854.6010543353
 30
0.0
 40
3.000000000000227
  0
CIRCLE
  5
58E
330
1F
100
AcDbEntity
  8
0
  6
Continuous
 62
     7
370
    25
100
AcDbCircle
 10
991.3059787234
 20
837.6010543353
 30
0.0
 40
2.999999999999886
  0
CIRCLE
  5
58F
330
1F
100
AcDbEntity
  8
0
  6
Continuous
 62
     7
370
    25
100
AcDbCircle
 10
1371.3059787234
 20
837.6010543353
 30
0.0
 40
3.000000000000227
  0
LINE
  5
590
330
1F
100
AcDbEntity
  8
0
  6
Continuous
 62
     7
370
    25
100
AcDbLine
 10
1019.8059787234
 20
729.6010543353
 30
0.0
 11
1017.8059787234
 21
729.6010543353
 31
0.0
  0
LINE
  5
591
330
1F
100
AcDbEntity
  8
0
  6
Continuous
 62
     7
370
    25
100
AcDbLine
 10
1019.8059787234
 20
749.6010543353
 30
0.0
 11
1019.8059787234
 21
729.6010543353
 31
0.0
  0
LINE
  5
592
330
1F
100
AcDbEntity
  8
0
  6
Continuous
 62
     7
370
    25
100
AcDbLine
 10
1017.8059787234
 20
749.6010543353
 30
0.0
 11
1019.8059787234
 21
749.6010543353
 31
0.0
  0
LINE
  5
593
330
1F
100
AcDbEntity
  8
0
  6
Continuous
 62
     7
370
    25
100
AcDbLine
 10
1017.8059787234
 20
729.6010543353
 30
0.0
 11
1017.8059787234
 21
749.6010543353
 31
0.0
  0
LINE
  5
594
330
1F
100
AcDbEntity
  8
0
  6
Continuous
 62
     7
370
    25
100
AcDbLine
 10
1344.8059787234
 20
749.6010543353
 30
0.0
 11
1344.8059787234
 21
729.6010543353
 31
0.0
  0
LINE
  5
595
330
1F
100
AcDbEntity
  8
0
  6
Continuous
 62
     7
370
    25
100
AcDbLine
 10
1342.8059787234
 20
749.6010543353
 30
0.0
 11
1344.8059787234
 21
749.6010543353
 31
0.0
  0
LINE
  5
596
330
1F
100
AcDbEntity
  8
0
  6
Continuous
 62
     7
370
    25
100
AcDbLine
 10
1342.8059787234
 20
729.6010543353
 30
0.0
 11
1342.8059787234
 21
749.6010543353
 31
0.0
  0
LINE
  5
597
330
1F
100
AcDbEntity
  8
0
  6
Continuous
 62
     7
370
    25
100
AcDbLine
 10
1344.8059787234
 20
729.6010543353
 30
0.0
 11
1342.8059787234
 21
729.6010543353
 31
0.0
  0
CIRCLE
  5
598
330
1F
100
AcDbEntity
  8
0
  6
Continuous
 62
     7
370
    25
100
AcDbCircle
 10
1123.8059787234
 20
824.6010543353
 30
0.0
 40
2.0
  0
CIRCLE
  5
599
330
1F
100
AcDbEntity
  8
0
  6
Continuous
 62
     7
370
    25
100
AcDbCircle
 10
1238.8059787234
 20
824.6010543353
 30
0.0
 40
2.0
  0
CIRCLE
  5
59A
330
1F
100
AcDbEntity
  8
0
  6
Continuous
 62
     7
370
    25
100
AcDbCircle
 10
1123.8059787234
 20
867.6010543353
 30
0.0
 40
2.0
  0
CIRCLE
  5
59B
330
1F
100
AcDbEntity
  8
0
  6
Continuous
 62
     7
370
    25
100
AcDbCircle
 10
1238.8059787234
 20
867.6010543353
 30
0.0
 40
2.0
  0
CIRCLE
  5
59C
330
1F
100
AcDbEntity
  8
0
  6
Continuous
 62
     7
370
    25
100
AcDbCircle
 10
1123.8059787234
 20
852.6010543353
 30
0.0
 40
2.0
  0
CIRCLE
  5
59D
330
1F
100
AcDbEntity
  8
0
  6
Continuous
 62
     7
370
    25
100
AcDbCircle
 10
1238.8059787234
 20
852.6010543353
 30
0.0
 40
2.0
  0
LINE
  5
59E
330
1F
100
AcDbEntity
  8
0
  6
Continuous
 62
     8
370
    25
100
AcDbLine
 10
1041.0555241404
 20
711.4010543353
 30
0.0
 11
1321.5564333065
 21
711.4010543353
 31
0.0
  0
DIMENSION
  5
59F
330
1F
100
AcDbEntity
  8
FORMAT
100
AcDbDimension
  2
_D_13
 10
1321.3059787234
 20
629.6010543353
 30
0.0
 11
1179.653872831
 21
629.6010543353
 31
0.0
 70
   160
  1
<>
 71
     2
 42
-1.0
  3
SLDDIMSTYLE0
100
AcDbAlignedDimension
 13
1041.3059787234
 23
712.6010543353
 33
0.0
 14
1321.3059787234
 24
712.6010543353
 34
0.0
 50
0.0
100
AcDbRotatedDimension
  0
DIMENSION
  5
5A9
330
1F
100
AcDbEntity
  8
FORMAT
100
AcDbDimension
  2
_D_14
 10
1501.3059787234
 20
709.6010543353
 30
0.0
 11
1501.3059787234
 21
748.1885511025
 31
0.0
 70
   160
  1
<>
 71
     2
 42
-1.0
  3
SLDDIMSTYLE0
100
AcDbAlignedDimension
 13
1321.3059787234
 23
789.6010543353
 33
0.0
 14
1386.3059787234
 24
709.6010543353
 34
0.0
 50
90.0
100
AcDbRotatedDimension
  0
ENDSEC
  0
SECTION
  2
OBJECTS
  0
DICTIONARY
  5
C
330
0
100
AcDbDictionary
281
     1
  3
ACAD_GROUP
350
D
  3
ACAD_LAYOUT
350
1A
  3
ACAD_MLINESTYLE
350
17
  3
ACAD_PLOTSETTINGS
350
19
  3
ACAD_PLOTSTYLENAME
350
E
  3
ACAD_SCALELIST
350
47
  0
DICTIONARY
  5
D
102
{ACAD_REACTORS
330
C
102
}
330
C
100
AcDbDictionary
281
     1
  0
DICTIONARY
  5
1A
102
{ACAD_REACTORS
330
C
102
}
330
C
100
AcDbDictionary
281
     1
  3
Layout1
350
1E
  3
Layout2
350
26
  3
Model
350
22
  0
DICTIONARY
  5
17
102
{ACAD_REACTORS
330
C
102
}
330
C
100
AcDbDictionary
281
     1
  3
Standard
350
18
  0
DICTIONARY
  5
19
102
{ACAD_REACTORS
330
C
102
}
330
C
100
AcDbDictionary
281
     1
  0
ACDBDICTIONARYWDFLT
  5
E
102
{ACAD_REACTORS
330
C
102
}
330
C
100
AcDbDictionary
281
     1
  3
Normal
350
F
100
AcDbDictionaryWithDefault
340
F
  0
DICTIONARY
  5
47
102
{ACAD_REACTORS
330
C
102
}
330
C
100
AcDbDictionary
281
     1
  3
A0
350
48
  3
A1
350
49
  3
A2
350
4A
  3
A3
350
4B
  3
A4
350
4C
  3
A5
350
4D
  3
A6
350
4E
  3
A7
350
4F
  3
A8
350
50
  3
A9
350
51
  3
B0
350
52
  3
B1
350
53
  3
B2
350
54
  3
B3
350
55
  3
B4
350
56
  3
B5
350
57
  3
B6
350
58
  3
B7
350
59
  3
B8
350
5A
  3
B9
350
5B
  3
C0
350
5C
  3
C1
350
5D
  3
C2
350
5E
  3
C3
350
5F
  3
C4
350
60
  3
C5
350
61
  3
C6
350
62
  3
C7
350
63
  3
C8
350
64
  3
C9
350
65
  3
D0
350
66
  3
D1
350
67
  3
D2
350
68
  0
LAYOUT
  5
1E
102
{ACAD_REACTORS
330
1A
102
}
330
1A
100
AcDbPlotSettings
  1

  2
none_device
  4

  6

 40
0.0
 41
0.0
 42
0.0
 43
0.0
 44
0.0
 45
0.0
 46
0.0
 47
0.0
 48
0.0
 49
0.0
140
0.0
141
0.0
142
1.0
143
1.0
 70
   688
 72
     1
 73
     0
 74
     5
  7

 75
    16
147
1.0
148
0.0
149
0.0
100
AcDbLayout
  1
Layout1
 70
     1
 71
     1
 10
0.0
 20
0.0
 11
420.0
 21
297.0
 12
0.0
 22
0.0
 32
0.0
 14
1.0000000000E+20
 24
1.0000000000E+20
 34
1.0000000000E+20
 15
-1.0000000000E+20
 25
-1.0000000000E+20
 35
-1.0000000000E+20
146
0.0
 13
0.0
 23
0.0
 33
0.0
 16
1.0
 26
0.0
 36
0.0
 17
0.0
 27
1.0
 37
0.0
 76
     0
330
1B
  0
LAYOUT
  5
26
102
{ACAD_REACTORS
330
1A
102
}
330
1A
100
AcDbPlotSettings
  1

  2
none_device
  4

  6

 40
0.0
 41
0.0
 42
0.0
 43
0.0
 44
0.0
 45
0.0
 46
0.0
 47
0.0
 48
0.0
 49
0.0
140
0.0
141
0.0
142
1.0
143
1.0
 70
   688
 72
     1
 73
     0
 74
     5
  7

 75
    16
147
1.0
148
0.0
149
0.0
100
AcDbLayout
  1
Layout2
 70
     1
 71
     2
 10
0.0
 20
0.0
 11
0.0
 21
0.0
 12
0.0
 22
0.0
 32
0.0
 14
0.0
 24
0.0
 34
0.0
 15
0.0
 25
0.0
 35
0.0
146
0.0
 13
0.0
 23
0.0
 33
0.0
 16
1.0
 26
0.0
 36
0.0
 17
0.0
 27
1.0
 37
0.0
 76
     0
330
23
  0
LAYOUT
  5
22
102
{ACAD_REACTORS
330
1A
102
}
330
1A
100
AcDbPlotSettings
  1

  2
none_device
  4
Letter_(8.50_x_11.00_Inches)
  6

 40
6.35
 41
6.35
 42
6.35000508
 43
6.35000508
 44
215.9
 45
279.4
 46
0.0
 47
0.0
 48
0.0
 49
0.0
140
0.0
141
0.0
142
1.0
143
1.0
 70
  1712
 72
     1
 73
     0
 74
     0
  7

 75
     0
147
1.0
148
0.0
149
0.0
100
AcDbLayout
  1
Model
 70
     1
 71
     0
 10
0.0
 20
0.0
 11
2159.0
 21
1397.0
 12
0.0
 22
0.0
 32
0.0
 14
0.0
 24
0.0
 34
0.0
 15
2159.0
 25
1397.0
 35
0.0
146
0.0
 13
0.0
 23
0.0
 33
0.0
 16
1.0
 26
0.0
 36
0.0
 17
0.0
 27
1.0
 37
0.0
 76
     0
330
1F
331
29
  0
MLINESTYLE
  5
18
102
{ACAD_REACTORS
330
17
102
}
330
17
100
AcDbMlineStyle
  2
Standard
 70
     0
  3

 62
   256
 51
90.0
 52
90.0
 71
     2
 49
0.5
 62
   256
  6
BYLAYER
 49
-0.5
 62
   256
  6
BYLAYER
  0
ACDBPLACEHOLDER
  5
F
102
{ACAD_REACTORS
330
E
102
}
330
E
  0
SCALE
  5
48
102
{ACAD_REACTORS
330
47
102
}
330
47
100
AcDbScale
 70
     0
300
1:1
140
1.0
141
1.0
290
     1
  0
SCALE
  5
49
102
{ACAD_REACTORS
330
47
102
}
330
47
100
AcDbScale
 70
     0
300
1:2
140
1.0
141
2.0
290
     0
  0
SCALE
  5
4A
102
{ACAD_REACTORS
330
47
102
}
330
47
100
AcDbScale
 70
     0
300
1:4
140
1.0
141
4.0
290
     0
  0
SCALE
  5
4B
102
{ACAD_REACTORS
330
47
102
}
330
47
100
AcDbScale
 70
     0
300
1:5
140
1.0
141
5.0
290
     0
  0
SCALE
  5
4C
102
{ACAD_REACTORS
330
47
102
}
330
47
100
AcDbScale
 70
     0
300
1:8
140
1.0
141
8.0
290
     0
  0
SCALE
  5
4D
102
{ACAD_REACTORS
330
47
102
}
330
47
100
AcDbScale
 70
     0
300
1:10
140
1.0
141
10.0
290
     0
  0
SCALE
  5
4E
102
{ACAD_REACTORS
330
47
102
}
330
47
100
AcDbScale
 70
     0
300
1:16
140
1.0
141
16.0
290
     0
  0
SCALE
  5
4F
102
{ACAD_REACTORS
330
47
102
}
330
47
100
AcDbScale
 70
     0
300
1:20
140
1.0
141
20.0
290
     0
  0
SCALE
  5
50
102
{ACAD_REACTORS
330
47
102
}
330
47
100
AcDbScale
 70
     0
300
1:30
140
1.0
141
30.0
290
     0
  0
SCALE
  5
51
102
{ACAD_REACTORS
330
47
102
}
330
47
100
AcDbScale
 70
     0
300
1:40
140
1.0
141
40.0
290
     0
  0
SCALE
  5
52
102
{ACAD_REACTORS
330
47
102
}
330
47
100
AcDbScale
 70
     0
300
1:50
140
1.0
141
50.0
290
     0
  0
SCALE
  5
53
102
{ACAD_REACTORS
330
47
102
}
330
47
100
AcDbScale
 70
     0
300
1:100
140
1.0
141
100.0
290
     0
  0
SCALE
  5
54
102
{ACAD_REACTORS
330
47
102
}
330
47
100
AcDbScale
 70
     0
300
2:1
140
2.0
141
1.0
290
     0
  0
SCALE
  5
55
102
{ACAD_REACTORS
330
47
102
}
330
47
100
AcDbScale
 70
     0
300
4:1
140
4.0
141
1.0
290
     0
  0
SCALE
  5
56
102
{ACAD_REACTORS
330
47
102
}
330
47
100
AcDbScale
 70
     0
300
8:1
140
8.0
141
1.0
290
     0
  0
SCALE
  5
57
102
{ACAD_REACTORS
330
47
102
}
330
47
100
AcDbScale
 70
     0
300
10:1
140
10.0
141
1.0
290
     0
  0
SCALE
  5
58
102
{ACAD_REACTORS
330
47
102
}
330
47
100
AcDbScale
 70
     0
300
100:1
140
100.0
141
1.0
290
     0
  0
SCALE
  5
59
102
{ACAD_REACTORS
330
47
102
}
330
47
100
AcDbScale
 70
     0
300
1/128" = 1'-0"
140
0.0078125
141
12.0
290
     0
  0
SCALE
  5
5A
102
{ACAD_REACTORS
330
47
102
}
330
47
100
AcDbScale
 70
     0
300
1/64" = 1'-0"
140
0.015625
141
12.0
290
     0
  0
SCALE
  5
5B
102
{ACAD_REACTORS
330
47
102
}
330
47
100
AcDbScale
 70
     0
300
1/32" = 1'-0"
140
0.03125
141
12.0
290
     0
  0
SCALE
  5
5C
102
{ACAD_REACTORS
330
47
102
}
330
47
100
AcDbScale
 70
     0
300
1/16" = 1'-0"
140
0.0625
141
12.0
290
     0
  0
SCALE
  5
5D
102
{ACAD_REACTORS
330
47
102
}
330
47
100
AcDbScale
 70
     0
300
3/32" = 1'-0"
140
0.09375
141
12.0
290
     0
  0
SCALE
  5
5E
102
{ACAD_REACTORS
330
47
102
}
330
47
100
AcDbScale
 70
     0
300
1/8" = 1'-0"
140
0.125
141
12.0
290
     0
  0
SCALE
  5
5F
102
{ACAD_REACTORS
330
47
102
}
330
47
100
AcDbScale
 70
     0
300
3/16" = 1'-0"
140
0.1875
141
12.0
290
     0
  0
SCALE
  5
60
102
{ACAD_REACTORS
330
47
102
}
330
47
100
AcDbScale
 70
     0
300
1/4" = 1'-0"
140
0.25
141
12.0
290
     0
  0
SCALE
  5
61
102
{ACAD_REACTORS
330
47
102
}
330
47
100
AcDbScale
 70
     0
300
3/8" = 1'-0"
140
0.375
141
12.0
290
     0
  0
SCALE
  5
62
102
{ACAD_REACTORS
330
47
102
}
330
47
100
AcDbScale
 70
     0
300
1/2" = 1'-0"
140
0.5
141
12.0
290
     0
  0
SCALE
  5
63
102
{ACAD_REACTORS
330
47
102
}
330
47
100
AcDbScale
 70
     0
300
3/4" = 1'-0"
140
0.75
141
12.0
290
     0
  0
SCALE
  5
64
102
{ACAD_REACTORS
330
47
102
}
330
47
100
AcDbScale
 70
     0
300
1" = 1'-0"
140
1.0
141
12.0
290
     0
  0
SCALE
  5
65
102
{ACAD_REACTORS
330
47
102
}
330
47
100
AcDbScale
 70
     0
300
1-1/2" = 1'-0"
140
1.5
141
12.0
290
     0
  0
SCALE
  5
66
102
{ACAD_REACTORS
330
47
102
}
330
47
100
AcDbScale
 70
     0
300
3" = 1'-0"
140
3.0
141
12.0
290
     0
  0
SCALE
  5
67
102
{ACAD_REACTORS
330
47
102
}
330
47
100
AcDbScale
 70
     0
300
6" = 1'-0"
140
6.0
141
12.0
290
     0
  0
SCALE
  5
68
102
{ACAD_REACTORS
330
47
102
}
330
47
100
AcDbScale
 70
     0
300
1'-0" = 1'-0"
140
12.0
141
12.0
290
     0
  0
ENDSEC
  0
EOF
